Начать новую тему Ответить на тему
Статистика раздачи
Размер: 2.9 ГБ | Добавлен: 03 янв 2013, 00:33 | Скачали: 24
Сидеров: 3  [0 байт/сек]    Личеров: 0  [0 байт/сек]
Пред. тема | След. тема 

Автор
Сообщение

СообщениеДобавлено: 03 янв 2013, 00:33 

Ответить с цитатой 

Жанр: Progressive rock, art rock, opera
Страна-производитель диска: EU
Год издания диска: 2011
Издатель (лейбл): Sony Music
Номер по каталогу: 88697763332
Страна: England
Аудиокодек: FLAC (*.flac)
Тип рипа: image+.cue
Битрейт аудио: lossless
Продолжительность: 06:55:22
Источник (релизер): Собственный
Наличие сканов в содержимом раздачи: да (Ping, 600dpi, 824Mb)

Об издании (Бокс-Сете): 4 апреля 2011 года был выпущен бокс-сет "Roger Waters — The Album Collection". Набор выпущен ограниченным тиражом и доступен во время тура Roger Waters The Wall Live. В набор входят восемь дисков: Pros & Cons of Hitch Hiking, Radio KAOS, Amused To Death, In The Flesh Live (2CD & 1DVD) и опера �a Ira (2CD). Все альбомы оформлены как мини-винил. Кроме того, комплект снабжен шестнадцати страничным буклетом.



1. 4:30 AM (Apparently They Were Travelling Abroad) (3:12)
2. 4:33 AM (Running Shoes) (4:08)
3. 4:37 AM (Arabs With Knives And West German Skies) (2:17)
4. 4:39 AM (For The First Time Today, Part 2) (2:02)
5. 4:41 AM (Sexual Revolution) (4:49)
6. 4:47 AM (The Remains Of Our Love) (3:09)
7. 4:50 AM (Go Fishing) (6:59)
8. 4:56 AM (For The First Time Today, Part 1) (1:38)
9. 4:58 AM (Dunroamin, Duncarin, Dunlivin) (3:03)
10. 5:01 AM (The Pros And Cons Of Hitch Hiking, Part 10) (4:36)
11. 5:06 AM (Every Stranger's Eyes) (4:48)
12. 5:11 AM (The Moment Of Clarity) (1:28)


Exact Audio Copy V1.0 beta 1 from 15. November 2010

EAC extraction logfile from 22. August 2011, 10:02

Roger Waters / Album Collection 2011 (CD 1) The Pros And Cons Of Hitch Hiking

Used drive : Optiarc DVD RW AD-5200S Adapter: 2 ID: 0

Read mode : Secure
Utilize accurate stream : Yes
Defeat audio cache : Yes
Make use of C2 pointers : No

Read offset correction : 48
Overread into Lead-In and Lead-Out : No
Fill up missing offset samples with silence : Yes
Delete leading and trailing silent blocks : No
Null samples used in CRC calculations : Yes
Used interface : Native Win32 interface for Win NT & 2000

Used output format : User Defined Encoder
Selected bitrate : 1024 kBit/s
Quality : High
Add ID3 tag : No
Command line compressor : C:\Program Files (x86)\Exact Audio Copy\FLAC\FLAC.EXE
Additional command line options : -8 -V %s

TOC of the extracted CD

Track | Start | Length | Start sector | End sector
---------------------------------------------------------
1 | 0:00.00 | 3:12.07 | 0 | 14406
2 | 3:12.07 | 4:08.05 | 14407 | 33011
3 | 7:20.12 | 2:17.28 | 33012 | 43314
4 | 9:37.40 | 2:02.42 | 43315 | 52506
5 | 11:40.07 | 4:49.10 | 52507 | 74191
6 | 16:29.17 | 3:09.33 | 74192 | 88399
7 | 19:38.50 | 6:59.52 | 88400 | 119876
8 | 26:38.27 | 1:38.25 | 119877 | 127251
9 | 28:16.52 | 3:03.58 | 127252 | 141034
10 | 31:20.35 | 4:36.65 | 141035 | 161799
11 | 35:57.25 | 4:48.52 | 161800 | 183451
12 | 40:46.02 | 1:28.35 | 183452 | 190086

Range status and errors

Selected range

Filename G:\Download\Музыка LossLess\Roger Waters\The Collection\Roger Waters - The Pros and Cons of Hitchhiking (1984)\Roger Waters - Album Collection 2011 (CD 1) The Pros And Cons Of Hitch Hiking.wav

Peak level 94.2 %
Extraction speed 0.1 X
Range quality 100.0 %
Test CRC 291EC5F2
Copy CRC 291EC5F2
Copy OK

No errors occurred

AccurateRip summary

Track 1 accurately ripped (confidence 3) [DB8EF19B]
Track 2 accurately ripped (confidence 3) [594A7593]
Track 3 accurately ripped (confidence 3) [AB49F770]
Track 4 accurately ripped (confidence 3) [31BDEC77]
Track 5 accurately ripped (confidence 3) [EC504688]
Track 6 accurately ripped (confidence 3) [F3785D67]
Track 7 accurately ripped (confidence 3) [0E331129]
Track 8 accurately ripped (confidence 3) [2A3E601E]
Track 9 accurately ripped (confidence 3) [260232B9]
Track 10 accurately ripped (confidence 3) [D4336EF3]
Track 11 accurately ripped (confidence 3) [20D81705]
Track 12 accurately ripped (confidence 3) [33FC8A47]

All tracks accurately ripped

End of status report



REM GENRE Rock
REM DATE 1984
REM DISCID AA09E60C
REM COMMENT "ExactAudioCopy v1.0b1"
PERFORMER "Roger Waters"
TITLE "Album Collection 2011 (CD 1) The Pros And Cons Of Hitch Hiking"
FILE "Roger Waters - Album Collection 2011 (CD 1) The Pros And Cons Of Hitch Hiking.flac" WAVE
TRACK 01 AUDIO
TITLE "4:30 AM (Apparently They Were Travelling Abroad)"
PERFORMER "Roger Waters"
INDEX 01 00:00:00
TRACK 02 AUDIO
TITLE "4:33 AM (Running Shoes)"
PERFORMER "Roger Waters"
INDEX 01 03:12:07
TRACK 03 AUDIO
TITLE "4:37 AM (Arabs With Knives And West German Skies)"
PERFORMER "Roger Waters"
INDEX 01 07:20:12
TRACK 04 AUDIO
TITLE "4:39 AM (For The First Time Today, Part 2)"
PERFORMER "Roger Waters"
INDEX 01 09:37:40
TRACK 05 AUDIO
TITLE "4:41 AM (Sexual Revolution)"
PERFORMER "Roger Waters"
INDEX 01 11:40:07
TRACK 06 AUDIO
TITLE "4:47 AM (The Remains Of Our Love)"
PERFORMER "Roger Waters"
INDEX 01 16:29:17
TRACK 07 AUDIO
TITLE "4:50 AM (Go Fishing)"
PERFORMER "Roger Waters"
INDEX 01 19:38:50
TRACK 08 AUDIO
TITLE "4:56 AM (For The First Time Today, Part 1)"
PERFORMER "Roger Waters"
INDEX 01 26:38:27
TRACK 09 AUDIO
TITLE "4:58 AM (Dunroamin, Duncarin, Dunlivin)"
PERFORMER "Roger Waters"
INDEX 01 28:16:52
TRACK 10 AUDIO
TITLE "5:01 AM (The Pros And Cons Of Hitch Hiking, Part 10)"
PERFORMER "Roger Waters"
INDEX 01 31:20:35
TRACK 11 AUDIO
TITLE "5:06 AM (Every Stranger's Eyes)"
PERFORMER "Roger Waters"
INDEX 01 35:57:25
TRACK 12 AUDIO
TITLE "5:11 AM (The Moment Of Clarity)"
PERFORMER "Roger Waters"
INDEX 01 40:46:02






1. Radio Waves (4:58)
2. Who Needs Information (5:55)
3. Me Or Him (5:23)
4. The Powers That Be (4:36)
5. Sunset Strip (4:45)
6. Home (6:00)
7. Four Minutes (4:00)
8. The Tide Is Turning (After Live Aid) (5:43)


Exact Audio Copy V1.0 beta 1 from 15. November 2010

EAC extraction logfile from 22. August 2011, 20:38

Roger Waters / Roger Waters - Album Collection 2011 (CD 2) Radio K.A.O.S.

Used drive : Optiarc DVD RW AD-5200S Adapter: 2 ID: 0

Read mode : Secure
Utilize accurate stream : Yes
Defeat audio cache : Yes
Make use of C2 pointers : No

Read offset correction : 48
Overread into Lead-In and Lead-Out : No
Fill up missing offset samples with silence : Yes
Delete leading and trailing silent blocks : No
Null samples used in CRC calculations : Yes
Used interface : Native Win32 interface for Win NT & 2000

Used output format : User Defined Encoder
Selected bitrate : 1024 kBit/s
Quality : High
Add ID3 tag : No
Command line compressor : C:\Program Files (x86)\Exact Audio Copy\FLAC\FLAC.EXE
Additional command line options : -8 -V %s

TOC of the extracted CD

Track | Start | Length | Start sector | End sector
---------------------------------------------------------
1 | 0:00.00 | 4:57.70 | 0 | 22344
2 | 4:57.70 | 5:55.45 | 22345 | 49014
3 | 10:53.40 | 5:23.55 | 49015 | 73294
4 | 16:17.20 | 4:36.35 | 73295 | 94029
5 | 20:53.55 | 4:45.27 | 94030 | 115431
6 | 25:39.07 | 6:00.30 | 115432 | 142461
7 | 31:39.37 | 4:00.17 | 142462 | 160478
8 | 35:39.54 | 5:43.43 | 160479 | 186246

Range status and errors

Selected range

Filename G:\Download\Музыка LossLess\Roger Waters\The Collection\Roger Waters - Radio K.A.O.S. (1987)\Roger Waters - Roger Waters - Album Collection 2011 (CD 2) Radio K.A.O.S..wav

Peak level 100.0 %
Extraction speed 0.5 X
Range quality 100.0 %
Test CRC 5F281BE7
Copy CRC 5F281BE7
Copy OK

No errors occurred

AccurateRip summary

Track 1 accurately ripped (confidence 3) [5B104FCE]
Track 2 accurately ripped (confidence 3) [440C3336]
Track 3 accurately ripped (confidence 3) [F0C1A2FB]
Track 4 accurately ripped (confidence 3) [5F541114]
Track 5 accurately ripped (confidence 3) [EB76BA7A]
Track 6 accurately ripped (confidence 3) [7D5BCF1C]
Track 7 accurately ripped (confidence 3) [4671FE47]
Track 8 accurately ripped (confidence 3) [E99D0A3D]

All tracks accurately ripped

End of status report



REM GENRE "Progressive Rock"
REM DATE 1987
REM DISCID 6A09B308
REM COMMENT "ExactAudioCopy v1.0b1"
PERFORMER "Roger Waters"
TITLE "Roger Waters - Album Collection 2011 (CD 2) Radio K.A.O.S."
FILE "Roger Waters - Roger Waters - Album Collection 2011 (CD 2) Radio K.A.O.S..flac" WAVE
TRACK 01 AUDIO
TITLE "Radio Waves"
PERFORMER "Roger Waters"
INDEX 01 00:00:00
TRACK 02 AUDIO
TITLE "Who Needs Information"
PERFORMER "Roger Waters"
INDEX 01 04:57:70
TRACK 03 AUDIO
TITLE "Me Or Him"
PERFORMER "Roger Waters"
INDEX 01 10:53:40
TRACK 04 AUDIO
TITLE "The Powers That Be"
PERFORMER "Roger Waters"
INDEX 01 16:17:20
TRACK 05 AUDIO
TITLE "Sunset Strip"
PERFORMER "Roger Waters"
INDEX 01 20:53:55
TRACK 06 AUDIO
TITLE "Home"
PERFORMER "Roger Waters"
INDEX 01 25:39:07
TRACK 07 AUDIO
TITLE "Four Minutes"
PERFORMER "Roger Waters"
INDEX 01 31:39:37
TRACK 08 AUDIO
TITLE "The Tide Is Turning (After Live Aid)"
PERFORMER "Roger Waters"
INDEX 01 35:39:54






1. The Ballad Of Bill Hubbard (4:19)
2. What God Wants, Part I (6:00)
3. Perfect Sense, Part I (4:16)
4. Perfect Sense, Part II (2:50)
5. The Bravery Of Being Out Of Range (4:42)
6. Late Home Tonight, Part I (4:01)
7. Late Home Tonight, Part II (2:13)
8. Too Much Rope (5:47)
9. What God Wants, Part II (3:41)
10. What God Wants, Part III (4:08)
11. Watching TV (6:07)
12. Three Wishes (6:50)
13. It's A Miracle (8:30)
14. Amused To Death (9:07)


Exact Audio Copy V1.0 beta 1 from 15. November 2010

EAC extraction logfile from 22. August 2011, 21:23

Roger Waters / Album Collection 2011 (CD 3) Amused To Death

Used drive : Optiarc DVD RW AD-5200S Adapter: 2 ID: 0

Read mode : Secure
Utilize accurate stream : Yes
Defeat audio cache : Yes
Make use of C2 pointers : No

Read offset correction : 48
Overread into Lead-In and Lead-Out : No
Fill up missing offset samples with silence : Yes
Delete leading and trailing silent blocks : No
Null samples used in CRC calculations : Yes
Used interface : Native Win32 interface for Win NT & 2000

Used output format : User Defined Encoder
Selected bitrate : 1024 kBit/s
Quality : High
Add ID3 tag : No
Command line compressor : C:\Program Files (x86)\Exact Audio Copy\FLAC\FLAC.EXE
Additional command line options : -8 -V %s

TOC of the extracted CD

Track | Start | Length | Start sector | End sector
---------------------------------------------------------
1 | 0:00.00 | 4:19.45 | 0 | 19469
2 | 4:19.45 | 6:00.15 | 19470 | 46484
3 | 10:19.60 | 4:16.00 | 46485 | 65684
4 | 14:35.60 | 2:50.62 | 65685 | 78496
5 | 17:26.47 | 4:42.40 | 78497 | 99686
6 | 22:09.12 | 4:01.43 | 99687 | 117804
7 | 26:10.55 | 2:13.12 | 117805 | 127791
8 | 28:23.67 | 5:47.23 | 127792 | 153839
9 | 34:11.15 | 3:41.45 | 153840 | 170459
10 | 37:52.60 | 4:08.00 | 170460 | 189059
11 | 42:00.60 | 6:07.67 | 189060 | 216651
12 | 48:08.52 | 6:50.20 | 216652 | 247421
13 | 54:58.72 | 8:30.13 | 247422 | 285684
14 | 63:29.10 | 9:07.40 | 285685 | 326749

Range status and errors

Selected range

Filename G:\Download\Музыка LossLess\Roger Waters\The Collection\Roger Waters - Amused To Death (1992)\Roger Waters - Album Collection 2011 (CD 3) Amused To Death.wav

Peak level 100.0 %
Extraction speed 0.5 X
Range quality 99.9 %
Test CRC 6F6BAD68
Copy CRC 6F6BAD68
Copy OK

No errors occurred

AccurateRip summary

Track 1 accurately ripped (confidence 3) [4D256684]
Track 2 accurately ripped (confidence 3) [0775E210]
Track 3 accurately ripped (confidence 3) [EBB41ADD]
Track 4 accurately ripped (confidence 3) [3DA6B75B]
Track 5 accurately ripped (confidence 3) [B2BDCBB0]
Track 6 accurately ripped (confidence 3) [9A89F49A]
Track 7 accurately ripped (confidence 3) [9B0D3150]
Track 8 accurately ripped (confidence 3) [9189C062]
Track 9 accurately ripped (confidence 3) [F013DA64]
Track 10 accurately ripped (confidence 3) [EBAB3AA7]
Track 11 accurately ripped (confidence 3) [1FC9B071]
Track 12 accurately ripped (confidence 3) [466E6F0F]
Track 13 accurately ripped (confidence 2) [93A5B7F2]
Track 14 accurately ripped (confidence 2) [BD965F41]

All tracks accurately ripped

End of status report



REM GENRE "Progressive Rock"
REM DATE 1992
REM DISCID A511040E
REM COMMENT "ExactAudioCopy v1.0b1"
PERFORMER "Roger Waters"
TITLE "Album Collection 2011 (CD 3) Amused To Death"
FILE "Roger Waters - Album Collection 2011 (CD 3) Amused To Death.flac" WAVE
TRACK 01 AUDIO
TITLE "The Ballad Of Bill Hubbard"
PERFORMER "Roger Waters"
INDEX 01 00:00:00
TRACK 02 AUDIO
TITLE "What God Wants, Part I"
PERFORMER "Roger Waters"
INDEX 01 04:19:45
TRACK 03 AUDIO
TITLE "Perfect Sense, Part I"
PERFORMER "Roger Waters"
INDEX 01 10:19:60
TRACK 04 AUDIO
TITLE "Perfect Sense, Part II"
PERFORMER "Roger Waters"
INDEX 01 14:35:60
TRACK 05 AUDIO
TITLE "The Bravery Of Being Out Of Range"
PERFORMER "Roger Waters"
INDEX 01 17:26:47
TRACK 06 AUDIO
TITLE "Late Home Tonight, Part I"
PERFORMER "Roger Waters"
INDEX 01 22:09:12
TRACK 07 AUDIO
TITLE "Late Home Tonight, Part II"
PERFORMER "Roger Waters"
INDEX 01 26:10:55
TRACK 08 AUDIO
TITLE "Too Much Rope"
PERFORMER "Roger Waters"
INDEX 01 28:23:67
TRACK 09 AUDIO
TITLE "What God Wants, Part II"
PERFORMER "Roger Waters"
INDEX 01 34:11:15
TRACK 10 AUDIO
TITLE "What God Wants, Part III"
PERFORMER "Roger Waters"
INDEX 01 37:52:60
TRACK 11 AUDIO
TITLE "Watching TV"
PERFORMER "Roger Waters"
INDEX 01 42:00:60
TRACK 12 AUDIO
TITLE "Three Wishes"
PERFORMER "Roger Waters"
INDEX 01 48:08:52
TRACK 13 AUDIO
TITLE "It's A Miracle"
PERFORMER "Roger Waters"
INDEX 01 54:58:72
TRACK 14 AUDIO
TITLE "Amused To Death"
PERFORMER "Roger Waters"
INDEX 01 63:29:10









1. In The Flesh (4:41)
2. The Happiest Days Of Our Lives (1:36)
3. Another Brick In The Wall, Part 2 (5:52)
4. Mother (5:41)
5. Get Your Filthy Hands Off My Desert (0:52)
6. Southampton Dock (2:16)
7. Pigs On The Wing, Part 1 (1:18)
8. Dogs (16:24)
9. Welcome To The Machine (6:54)
10. Wish You Were Here (4:57)
11. SHINE ON YOU CRAZY DIAMOND (Parts 1-8) (14:43)
12. Set The Controls For The Heart Of The Sun (7:10)


Exact Audio Copy V1.0 beta 1 from 15. November 2010

EAC extraction logfile from 23. August 2011, 7:23

Roger Waters / Album Collection 2011 (CD 6) In The Flesh \ Cd 1

Used drive : Optiarc DVD RW AD-5200S Adapter: 2 ID: 0

Read mode : Secure
Utilize accurate stream : Yes
Defeat audio cache : Yes
Make use of C2 pointers : No

Read offset correction : 48
Overread into Lead-In and Lead-Out : No
Fill up missing offset samples with silence : Yes
Delete leading and trailing silent blocks : No
Null samples used in CRC calculations : Yes
Used interface : Native Win32 interface for Win NT & 2000

Used output format : User Defined Encoder
Selected bitrate : 1024 kBit/s
Quality : High
Add ID3 tag : No
Command line compressor : C:\Program Files (x86)\Exact Audio Copy\FLAC\FLAC.EXE
Additional command line options : -8 -V %s

TOC of the extracted CD

Track | Start | Length | Start sector | End sector
---------------------------------------------------------
1 | 0:00.00 | 4:41.42 | 0 | 21116
2 | 4:41.42 | 1:36.50 | 21117 | 28366
3 | 6:18.17 | 5:52.45 | 28367 | 54811
4 | 12:10.62 | 5:41.50 | 54812 | 80436
5 | 17:52.37 | 0:52.15 | 80437 | 84351
6 | 18:44.52 | 2:16.28 | 84352 | 94579
7 | 21:01.05 | 1:18.45 | 94580 | 100474
8 | 22:19.50 | 16:24.70 | 100475 | 174344
9 | 38:44.45 | 6:54.30 | 174345 | 205424
10 | 45:39.00 | 4:57.35 | 205425 | 227734
11 | 50:36.35 | 14:43.15 | 227735 | 293974
12 | 65:19.50 | 7:10.50 | 293975 | 326274

Range status and errors

Selected range

Filename G:\Download\Музыка LossLess\Roger Waters\The Collection\Roger Waters - In The Flesh (2000) 2CD+DVD\CD1\Roger Waters - Album Collection 2011 (CD 6) In The Flesh - Cd 1.wav

Peak level 100.0 %
Extraction speed 0.4 X
Range quality 100.0 %
Test CRC F7A018DF
Copy CRC F7A018DF
Copy OK

No errors occurred

AccurateRip summary

Track 1 accurately ripped (confidence 11) [44DF22BF]
Track 2 accurately ripped (confidence 11) [A3234B1B]
Track 3 accurately ripped (confidence 11) [61483EF5]
Track 4 accurately ripped (confidence 11) [E9C1DE60]
Track 5 accurately ripped (confidence 11) [696F3E38]
Track 6 accurately ripped (confidence 11) [4EBBD3E7]
Track 7 accurately ripped (confidence 11) [0B138F90]
Track 8 accurately ripped (confidence 10) [F1E8EA13]
Track 9 accurately ripped (confidence 10) [1C346D68]
Track 10 accurately ripped (confidence 10) [85E03209]
Track 11 accurately ripped (confidence 9) [329ACD5F]
Track 12 accurately ripped (confidence 10) [A3554DC3]

All tracks accurately ripped

End of status report



REM GENRE "Progressive Rock"
REM DATE 2000
REM DISCID 8910FE0C
REM COMMENT "ExactAudioCopy v1.0b1"
PERFORMER "Roger Waters"
TITLE "Album Collection 2011 (CD 6) In The Flesh \ Cd 1"
FILE "Roger Waters - Album Collection 2011 (CD 6) In The Flesh - Cd 1.flac" WAVE
TRACK 01 AUDIO
TITLE "In The Flesh"
PERFORMER "Roger Waters"
INDEX 01 00:00:00
TRACK 02 AUDIO
TITLE "The Happiest Days Of Our Lives"
PERFORMER "Roger Waters"
INDEX 01 04:41:42
TRACK 03 AUDIO
TITLE "Another Brick In The Wall, Part 2"
PERFORMER "Roger Waters"
INDEX 01 06:18:17
TRACK 04 AUDIO
TITLE "Mother"
PERFORMER "Roger Waters"
INDEX 01 12:10:62
TRACK 05 AUDIO
TITLE "Get Your Filthy Hands Off My Desert"
PERFORMER "Roger Waters"
INDEX 01 17:52:37
TRACK 06 AUDIO
TITLE "Southampton Dock"
PERFORMER "Roger Waters"
INDEX 01 18:44:52
TRACK 07 AUDIO
TITLE "Pigs On The Wing, Part 1"
PERFORMER "Roger Waters"
INDEX 01 21:01:05
TRACK 08 AUDIO
TITLE "Dogs"
PERFORMER "Roger Waters"
INDEX 01 22:19:50
TRACK 09 AUDIO
TITLE "Welcome To The Machine"
PERFORMER "Roger Waters"
INDEX 01 38:44:45
TRACK 10 AUDIO
TITLE "Wish You Were Here"
PERFORMER "Roger Waters"
INDEX 01 45:39:00
TRACK 11 AUDIO
TITLE "SHINE ON YOU CRAZY DIAMOND (Parts 1-8)"
PERFORMER "Roger Waters"
INDEX 01 50:36:35
TRACK 12 AUDIO
TITLE "Set The Controls For The Heart Of The Sun"
PERFORMER "Roger Waters"
INDEX 01 65:19:50





1. Breathe (In The Air) (3:23)
2. Time (6:24)
3. Money (6:11)
4. THE PROS AND CONS OF HITCH HIKING PART 11 (aka 5:06 a.m. - Every Stranger's E... (5:20)
5. PERFECT SENSE (Parts I and II) (7:26)
6. The Bravery Of Being Out Of Range (5:04)
7. It's A Miracle (8:12)
8. Amused To Death (9:25)
9. Brain Damage (4:06)
10. Eclipse (2:19)
11. Comfortably Numb (8:08)
12. Each Small Candle (9:05)


Exact Audio Copy V1.0 beta 1 from 15. November 2010

EAC extraction logfile from 23. August 2011, 8:17

Roger Waters / Album Collection 2011 (CD 7) In The Flesh - Cd 2

Used drive : Optiarc DVD RW AD-5200S Adapter: 2 ID: 0

Read mode : Secure
Utilize accurate stream : Yes
Defeat audio cache : Yes
Make use of C2 pointers : No

Read offset correction : 48
Overread into Lead-In and Lead-Out : No
Fill up missing offset samples with silence : Yes
Delete leading and trailing silent blocks : No
Null samples used in CRC calculations : Yes
Used interface : Native Win32 interface for Win NT & 2000

Used output format : User Defined Encoder
Selected bitrate : 1024 kBit/s
Quality : High
Add ID3 tag : No
Command line compressor : C:\Program Files (x86)\Exact Audio Copy\FLAC\FLAC.EXE
Additional command line options : -8 -V %s

TOC of the extracted CD

Track | Start | Length | Start sector | End sector
---------------------------------------------------------
1 | 0:00.00 | 3:23.00 | 0 | 15224
2 | 3:23.00 | 6:24.15 | 15225 | 44039
3 | 9:47.15 | 6:11.22 | 44040 | 71886
4 | 15:58.37 | 5:20.38 | 71887 | 95924
5 | 21:19.00 | 7:26.30 | 95925 | 129404
6 | 28:45.30 | 5:04.02 | 129405 | 152206
7 | 33:49.32 | 8:12.03 | 152207 | 189109
8 | 42:01.35 | 9:25.65 | 189110 | 231549
9 | 51:27.25 | 4:06.50 | 231550 | 250049
10 | 55:34.00 | 2:19.67 | 250050 | 260541
11 | 57:53.67 | 8:08.58 | 260542 | 297199
12 | 66:02.50 | 9:05.00 | 297200 | 338074

Range status and errors

Selected range

Filename G:\Download\Музыка LossLess\Roger Waters\The Collection\Roger Waters - In The Flesh (2000) 2CD+DVD\CD2\Roger Waters - Roger Waters In The Flesh - Cd 2.wav

Peak level 100.0 %
Extraction speed 0.5 X
Range quality 100.0 %
Test CRC F6FBCE92
Copy CRC F6FBCE92
Copy OK

No errors occurred

AccurateRip summary

Track 1 accurately ripped (confidence 9) [CED6045E]
Track 2 accurately ripped (confidence 9) [1EC8B5CC]
Track 3 accurately ripped (confidence 9) [6F2F5998]
Track 4 accurately ripped (confidence 9) [90C5BC37]
Track 5 accurately ripped (confidence 9) [0A187CB8]
Track 6 accurately ripped (confidence 9) [9FA8F316]
Track 7 accurately ripped (confidence 9) [726C68C6]
Track 8 accurately ripped (confidence 9) [02952A5B]
Track 9 accurately ripped (confidence 9) [3EA952A1]
Track 10 accurately ripped (confidence 9) [31AE7325]
Track 11 accurately ripped (confidence 9) [AFB2BA83]
Track 12 accurately ripped (confidence 9) [1B3E2213]

All tracks accurately ripped

End of status report



REM DISCID A9119B0C
REM COMMENT "ExactAudioCopy v1.0b1"
PERFORMER "Roger Waters"
TITLE "Album Collection 2011 (CD 7) In The Flesh - Cd 2"
FILE "Roger Waters - Roger Waters In The Flesh - Cd 2.flac" WAVE
TRACK 01 AUDIO
TITLE "Breathe (In The Air)"
PERFORMER "Roger Waters"
INDEX 01 00:00:00
TRACK 02 AUDIO
TITLE "Time"
PERFORMER "Roger Waters"
INDEX 01 03:23:00
TRACK 03 AUDIO
TITLE "Money"
PERFORMER "Roger Waters"
INDEX 01 09:47:15
TRACK 04 AUDIO
TITLE "THE PROS AND CONS OF HITCH HIKING PART 11 (aka 5:06 a.m. - Every Stranger's E..."
PERFORMER "Roger Waters"
INDEX 01 15:58:37
TRACK 05 AUDIO
TITLE "PERFECT SENSE (Parts I and II)"
PERFORMER "Roger Waters"
INDEX 01 21:19:00
TRACK 06 AUDIO
TITLE "The Bravery Of Being Out Of Range"
PERFORMER "Roger Waters"
INDEX 01 28:45:30
TRACK 07 AUDIO
TITLE "It's A Miracle"
PERFORMER "Roger Waters"
INDEX 01 33:49:32
TRACK 08 AUDIO
TITLE "Amused To Death"
PERFORMER "Roger Waters"
INDEX 01 42:01:35
TRACK 09 AUDIO
TITLE "Brain Damage"
PERFORMER "Roger Waters"
INDEX 01 51:27:25
TRACK 10 AUDIO
TITLE "Eclipse"
PERFORMER "Roger Waters"
INDEX 01 55:34:00
TRACK 11 AUDIO
TITLE "Comfortably Numb"
PERFORMER "Roger Waters"
INDEX 01 57:53:67
TRACK 12 AUDIO
TITLE "Each Small Candle"
PERFORMER "Roger Waters"
INDEX 01 66:02:50











1. The Gathering Storm (1:37)
2. Overture (4:06)
3. A Garden in Vienna 1765 (0:54)
4. 'Madame Antoine, Madame Antoine' (2:53)
5. Kings, Stick and Birds (2:40)
6. 'Honest bird, simple bird...' (2:10)
7. 'I want to be King...' (2:38)
8. 'Let us break all the shields...' (1:46)
9. The Grievances of the People (4:39)
10. France in Disarray (2:34)
11. 'To laugh is to know how to live...' (1:43)
12. 'Slavers, Landlords, Bigots at your door...' (3:36)
13. The Fall of the Bastille (1:34)
14. 'To freeze in the dead of night...' (2:19)
15. 'So to the streets in the pouring rain...' (4:17)
16. Dances and Marches (2:12)
17. 'Now Hear Ye!...' (2:17)
18. 'Flushed with wine...' (4:32)
19. The Letter (1:37)
20. 'My dear Cousin Bourbon of Spain...' (2:48)
21. 'The ship of state is all at sea...' (1:47)
22. Silver, Sugar and Indigo (0:55)
23. 'To the Windward Isles...' (4:50)
24. The Papal Edict (1:17)
25. 'In Paris there's a rumble under the ground...' (6:21)


Exact Audio Copy V1.0 beta 1 from 15. November 2010

EAC extraction logfile from 22. August 2011, 22:14

Roger Waters / Album Collection 2011 (CD 4) Ca Ira. Disc 1

Used drive : Optiarc DVD RW AD-5200S Adapter: 2 ID: 0

Read mode : Secure
Utilize accurate stream : Yes
Defeat audio cache : Yes
Make use of C2 pointers : No

Read offset correction : 48
Overread into Lead-In and Lead-Out : No
Fill up missing offset samples with silence : Yes
Delete leading and trailing silent blocks : No
Null samples used in CRC calculations : Yes
Used interface : Native Win32 interface for Win NT & 2000

Used output format : User Defined Encoder
Selected bitrate : 1024 kBit/s
Quality : High
Add ID3 tag : No
Command line compressor : C:\Program Files (x86)\Exact Audio Copy\FLAC\FLAC.EXE
Additional command line options : -8 -V %s

TOC of the extracted CD

Track | Start | Length | Start sector | End sector
---------------------------------------------------------
1 | 0:00.00 | 1:37.61 | 0 | 7335
2 | 1:37.61 | 4:06.65 | 7336 | 25850
3 | 5:44.51 | 0:54.27 | 25851 | 29927
4 | 6:39.03 | 2:53.62 | 29928 | 42964
5 | 9:32.65 | 2:40.32 | 42965 | 54996
6 | 12:13.22 | 2:10.24 | 54997 | 64770
7 | 14:23.46 | 2:37.72 | 64771 | 76617
8 | 17:01.43 | 1:46.30 | 76618 | 84597
9 | 18:47.73 | 4:39.31 | 84598 | 105553
10 | 23:27.29 | 2:34.62 | 105554 | 117165
11 | 26:02.16 | 1:43.46 | 117166 | 124936
12 | 27:45.62 | 3:36.63 | 124937 | 141199
13 | 31:22.50 | 1:34.54 | 141200 | 148303
14 | 32:57.29 | 2:19.16 | 148304 | 158744
15 | 35:16.45 | 4:17.00 | 158745 | 178019
16 | 39:33.45 | 2:12.29 | 178020 | 187948
17 | 41:45.74 | 2:17.47 | 187949 | 198270
18 | 44:03.46 | 4:32.28 | 198271 | 218698
19 | 48:35.74 | 1:37.62 | 218699 | 226035
20 | 50:13.61 | 2:48.57 | 226036 | 238692
21 | 53:02.43 | 1:47.22 | 238693 | 246739
22 | 54:49.65 | 0:55.07 | 246740 | 250871
23 | 55:44.72 | 4:50.17 | 250872 | 272638
24 | 60:35.14 | 1:17.68 | 272639 | 278481
25 | 61:53.07 | 6:21.18 | 278482 | 307074

Range status and errors

Selected range

Filename G:\Download\Музыка LossLess\Roger Waters\The Collection\Roger Waters - Ca Ira\Disc1\Roger Waters - Album Collection 2011 (CD 4) Ca Ira. Disc 1.wav

Peak level 96.6 %
Extraction speed 0.3 X
Range quality 99.9 %
Test CRC FDFE88A6
Copy CRC FDFE88A6
Copy OK

No errors occurred

AccurateRip summary

Track 1 accurately ripped (confidence 3) [F1E6670B]
Track 2 accurately ripped (confidence 3) [DBF13327]
Track 3 accurately ripped (confidence 3) [32BBF91A]
Track 4 accurately ripped (confidence 3) [C99C4B9F]
Track 5 accurately ripped (confidence 3) [7960750D]
Track 6 accurately ripped (confidence 3) [B762FDB6]
Track 7 accurately ripped (confidence 3) [12A0C813]
Track 8 accurately ripped (confidence 3) [DC8378D8]
Track 9 accurately ripped (confidence 3) [952590B7]
Track 10 accurately ripped (confidence 3) [4FCDDEE5]
Track 11 accurately ripped (confidence 3) [AFCF7383]
Track 12 accurately ripped (confidence 3) [008B12BC]
Track 13 accurately ripped (confidence 3) [63458693]
Track 14 accurately ripped (confidence 3) [1F670929]
Track 15 accurately ripped (confidence 3) [2C979E02]
Track 16 accurately ripped (confidence 3) [39AFB03D]
Track 17 accurately ripped (confidence 3) [2BAAADD9]
Track 18 accurately ripped (confidence 3) [B4ECAD38]
Track 19 accurately ripped (confidence 3) [8CFA64F8]
Track 20 accurately ripped (confidence 3) [4781589E]
Track 21 accurately ripped (confidence 3) [8E977201]
Track 22 accurately ripped (confidence 3) [78A62286]
Track 23 accurately ripped (confidence 3) [528A6E6A]
Track 24 accurately ripped (confidence 3) [2A308338]
Track 25 accurately ripped (confidence 3) [5746A6AD]

All tracks accurately ripped

End of status report



REM GENRE Opera
REM DATE 2005
REM DISCID 770FFE19
REM COMMENT "ExactAudioCopy v1.0b1"
PERFORMER "Roger Waters"
TITLE "Album Collection 2011 (CD 4) Ca Ira. Disc 1"
FILE "Roger Waters - Album Collection 2011 (CD 4) Ca Ira. Disc 1.flac" WAVE
TRACK 01 AUDIO
TITLE "The Gathering Storm"
PERFORMER "Roger Waters"
INDEX 01 00:00:00
TRACK 02 AUDIO
TITLE "Overture"
PERFORMER "Roger Waters"
INDEX 01 01:37:61
TRACK 03 AUDIO
TITLE "A Garden in Vienna 1765"
PERFORMER "Roger Waters"
INDEX 01 05:44:51
TRACK 04 AUDIO
TITLE "'Madame Antoine, Madame Antoine'"
PERFORMER "Roger Waters"
INDEX 01 06:39:03
TRACK 05 AUDIO
TITLE "Kings, Stick and Birds"
PERFORMER "Roger Waters"
INDEX 01 09:32:65
TRACK 06 AUDIO
TITLE "'Honest bird, simple bird...'"
PERFORMER "Roger Waters"
INDEX 01 12:13:22
TRACK 07 AUDIO
TITLE "'I want to be King...'"
PERFORMER "Roger Waters"
INDEX 01 14:23:46
TRACK 08 AUDIO
TITLE "'Let us break all the shields...'"
PERFORMER "Roger Waters"
INDEX 01 17:01:43
TRACK 09 AUDIO
TITLE "The Grievances of the People"
PERFORMER "Roger Waters"
INDEX 01 18:47:73
TRACK 10 AUDIO
TITLE "France in Disarray"
PERFORMER "Roger Waters"
INDEX 01 23:27:29
TRACK 11 AUDIO
TITLE "'To laugh is to know how to live...'"
PERFORMER "Roger Waters"
INDEX 01 26:02:16
TRACK 12 AUDIO
TITLE "'Slavers, Landlords, Bigots at your door...'"
PERFORMER "Roger Waters"
INDEX 01 27:45:62
TRACK 13 AUDIO
TITLE "The Fall of the Bastille"
PERFORMER "Roger Waters"
INDEX 01 31:22:50
TRACK 14 AUDIO
TITLE "'To freeze in the dead of night...'"
PERFORMER "Roger Waters"
INDEX 01 32:57:29
TRACK 15 AUDIO
TITLE "'So to the streets in the pouring rain...'"
PERFORMER "Roger Waters"
INDEX 01 35:16:45
TRACK 16 AUDIO
TITLE "Dances and Marches"
PERFORMER "Roger Waters"
INDEX 01 39:33:45
TRACK 17 AUDIO
TITLE "'Now Hear Ye!...'"
PERFORMER "Roger Waters"
INDEX 01 41:45:74
TRACK 18 AUDIO
TITLE "'Flushed with wine...'"
PERFORMER "Roger Waters"
INDEX 01 44:03:46
TRACK 19 AUDIO
TITLE "The Letter"
PERFORMER "Roger Waters"
INDEX 01 48:35:74
TRACK 20 AUDIO
TITLE "'My dear Cousin Bourbon of Spain...'"
PERFORMER "Roger Waters"
INDEX 01 50:13:61
TRACK 21 AUDIO
TITLE "'The ship of state is all at sea...'"
PERFORMER "Roger Waters"
INDEX 01 53:02:43
TRACK 22 AUDIO
TITLE "Silver, Sugar and Indigo"
PERFORMER "Roger Waters"
INDEX 01 54:49:65
TRACK 23 AUDIO
TITLE "'To the Windward Isles...'"
PERFORMER "Roger Waters"
INDEX 01 55:44:72
TRACK 24 AUDIO
TITLE "The Papal Edict"
PERFORMER "Roger Waters"
INDEX 01 60:35:14
TRACK 25 AUDIO
TITLE "'In Paris there's a rumble under the ground...'"
PERFORMER "Roger Waters"
INDEX 01 61:53:07





1. The Fugitive King (2:12)
2. 'But The Marquis Of Boulli Has A Trump Card Up His Sleeve...' (4:27)
3. 'To Take Your Hat Off...' (2:40)
4. 'The Echoes Never Fade From That Fusillade...' (3:15)
5. The Commune De Paris (2:43)
6. 'Vive La Commune De Paris...' (3:15)
7. 'The National Assembly Is Confused...' (2:42)
8. The Execution Of Louis Capet (1:39)
9. 'Adieu Loius For You It's Over...' (3:46)
10. Marie Antoinette - The Last Night On Earth (1:36)
11. 'Adieu My Good And Tender Sister...' (5:10)
12. Liberty (2:50)
13. 'And In The Bushes Where They Survive...' (6:55)


Exact Audio Copy V1.0 beta 1 from 15. November 2010

EAC extraction logfile from 23. August 2011, 8:52

Roger Waters / Album Collection 2011 (CD 5) - Ca Ira, Disc 2

Used drive : Optiarc DVD RW AD-5200S Adapter: 2 ID: 0

Read mode : Secure
Utilize accurate stream : Yes
Defeat audio cache : Yes
Make use of C2 pointers : No

Read offset correction : 48
Overread into Lead-In and Lead-Out : No
Fill up missing offset samples with silence : Yes
Delete leading and trailing silent blocks : No
Null samples used in CRC calculations : Yes
Used interface : Native Win32 interface for Win NT & 2000

Used output format : User Defined Encoder
Selected bitrate : 1024 kBit/s
Quality : High
Add ID3 tag : No
Command line compressor : C:\Program Files (x86)\Exact Audio Copy\FLAC\FLAC.EXE
Additional command line options : -8 -V %s

TOC of the extracted CD

Track | Start | Length | Start sector | End sector
---------------------------------------------------------
1 | 0:00.00 | 2:12.37 | 0 | 9936
2 | 2:12.37 | 4:27.52 | 9937 | 30013
3 | 6:40.14 | 2:40.61 | 30014 | 42074
4 | 9:21.00 | 3:15.68 | 42075 | 56767
5 | 12:36.68 | 2:43.16 | 56768 | 69008
6 | 15:20.09 | 3:15.36 | 69009 | 83669
7 | 18:35.45 | 2:41.70 | 83670 | 95814
8 | 21:17.40 | 1:39.65 | 95815 | 103304
9 | 22:57.30 | 3:45.72 | 103305 | 120251
10 | 26:43.27 | 1:36.21 | 120252 | 127472
11 | 28:19.48 | 5:10.19 | 127473 | 150741
12 | 33:29.67 | 2:50.53 | 150742 | 163544
13 | 36:20.45 | 6:54.73 | 163545 | 194667

Welcome To The MachineRange status and errors

Selected range

Filename G:\Download\Музыка LossLess\Roger Waters\The Collection\Roger Waters - Ca Ira (2005) 2CD\Disc2\Roger Waters - Album Collection 2011 (CD 5) - Ca Ira, Disc 2.wav

Peak level 95.3 %
Extraction speed 0.5 X
Range quality 100.0 %
Test CRC 64117E3A
Copy CRC 64117E3A
Copy OK

No errors occurred

AccurateRip summary

Track 1 accurately ripped (confidence 3) [D1C8E32C]
Track 2 accurately ripped (confidence 3) [F0FF4F23]
Track 3 accurately ripped (confidence 3) [FA789E2A]
Track 4 accurately ripped (confidence 3) [A1BEF925]
Track 5 accurately ripped (confidence 3) [03621D41]
Track 6 accurately ripped (confidence 3) [C7C17136]
Track 7 accurately ripped (confidence 3) [A725F11C]
Track 8 accurately ripped (confidence 3) [5E770A15]
Track 9 accurately ripped (confidence 3) [C2895508]
Track 10 accurately ripped (confidence 3) [9A8A7AF8]
Track 11 accurately ripped (confidence 3) [B5824E85]
Track 12 accurately ripped (confidence 3) [974BDDE1]
Track 13 accurately ripped (confidence 3) [FE95735B]

All tracks accurately ripped

End of status report



REM GENRE Opera
REM DATE 2005
REM DISCID 960A230D
REM COMMENT "ExactAudioCopy v1.0b1"
PERFORMER "Roger Waters"
TITLE "Album Collection 2011 (CD 5) - Ca Ira, Disc 2"
FILE "Roger Waters - Album Collection 2011 (CD 5) - Ca Ira, Disc 2.flac" WAVE
TRACK 01 AUDIO
TITLE "The Fugitive King"
PERFORMER "Roger Waters"
INDEX 01 00:00:00
TRACK 02 AUDIO
TITLE "'But The Marquis Of Boulli Has A Trump Card Up His Sleeve...'"
PERFORMER "Roger Waters"
INDEX 01 02:12:37
TRACK 03 AUDIO
TITLE "'To Take Your Hat Off...'"
PERFORMER "Roger Waters"
INDEX 01 06:40:14
TRACK 04 AUDIO
TITLE "'The Echoes Never Fade From That Fusillade...'"
PERFORMER "Roger Waters"
INDEX 01 09:21:00
TRACK 05 AUDIO
TITLE "The Commune De Paris"
PERFORMER "Roger Waters"
INDEX 01 12:36:68
TRACK 06 AUDIO
TITLE "'Vive La Commune De Paris...'"
PERFORMER "Roger Waters"
INDEX 01 15:20:09
TRACK 07 AUDIO
TITLE "'The National Assembly Is Confused...'"
PERFORMER "Roger Waters"
INDEX 01 18:35:45
TRACK 08 AUDIO
TITLE "The Execution Of Louis Capet"
PERFORMER "Roger Waters"
INDEX 01 21:17:40
TRACK 09 AUDIO
TITLE "'Adieu Loius For You It's Over...'"
PERFORMER "Roger Waters"
INDEX 01 22:57:30
TRACK 10 AUDIO
TITLE "Marie Antoinette - The Last Night On Earth"
PERFORMER "Roger Waters"
INDEX 01 26:43:27
TRACK 11 AUDIO
TITLE "'Adieu My Good And Tender Sister...'"
PERFORMER "Roger Waters"
INDEX 01 28:19:48
TRACK 12 AUDIO
TITLE "Liberty"
PERFORMER "Roger Waters"
INDEX 01 33:29:67
TRACK 13 AUDIO
TITLE "'And In The Bushes Where They Survive...'"
PERFORMER "Roger Waters"
INDEX 01 36:20:45




Правила, инструкции, FAQ!!!
Торрент  Добавлен [03 янв 2013, 00:33] Скачать торрент Магнет ссылка
Скачать торрент
[ Размер 22.49 КБ / Просмотров 67 ]

Статус
Проверен 
 
Размер  2.9 ГБ
Приватный: Нет (DHT включён)
.torrent скачан  24
 


     Отправить личное сообщение
   
Страница 1 из 1
Показать сообщения за:  Поле сортировки  
Начать новую тему Ответить на тему


Сейчас этот форум просматривают: нет зарегистрированных пользователей и гости: 0


Вы не можете начинать темы
Вы не можете отвечать на сообщения
Вы не можете редактировать свои сообщения
Вы не можете удалять свои сообщения
Вы не можете добавлять вложения

Перейти:  
cron
cron