Начать новую тему Ответить на тему
Статистика раздачи
Размер: 2.94 ГБ | Добавлен: 24 авг 2016, 12:05 | Скачали: 3
Сидеров: 4  [0 байт/сек]    Личеров: 0  [0 байт/сек]
Пред. тема | След. тема 

Автор
Сообщение

СообщениеДобавлено: 24 авг 2016, 12:05 

Ответить с цитатой 

Dream Theater. 1997. Falling Into Infinity
[2013 Music On Vinyl # MOVLP912]

Жанр: Progressive Metal
Носитель: 2LP
Год выпуска: 1997 / 2013
Лейбл: Music On Vinyl
Номер по каталогу: MOVLP912
Страна-производитель: EU
Аудио кодек: FLAC
Тип рипа: image+.cue
Формат записи: 32/192
Формат раздачи: 24/192
Продолжительность: 1:19:44.800 (918 681 596 samples)

Треклист:

Side One:
01-New Millennium
02-You Not Me
03-Peruvian Skies

Side Two:
04-Hollow Years
05-Burning My Soul
06-Hell's Kitchen

Side Three:
07-Lines in the Sand
08-Take Away My Pain
09-Just Let Me Breathe

Side Four:
10-Anna Lee
11-Trial of Tears

Источник оцифровки:
Код класса состояния винила: Mint (New)
Устройство воспроизведения: Technics SL-M1
Головка звукоснимателя: audio-technica AT33EV
Предварительный усилитель: NAD PP 2 + ePSU
АЦП: E-MU 1212m PCI
Программа-оцифровщик: iZotope RX 3 64-bit
Обработка: Ручное удаление щелчков в Adobe Audition CS6
Доп. информация: Scans 300dpi (UMAX PowerLookIII)

foobar2000 1.3.3 / Dynamic Range Meter 1.1.1
log date: 2014-10-24 07:34:32

--------------------------------------------------------------------------------
Analyzed: Dream Theater / Falling Into Infinity [Music On Vinyl # MOVLP912]
--------------------------------------------------------------------------------

DR Peak RMS Duration Track
--------------------------------------------------------------------------------
DR12 -1.48 dB -16.30 dB 8:28 01-New Millennium
DR13 -0.59 dB -15.25 dB 5:11 02-You Not Me
DR13 -1.88 dB -17.06 dB 6:44 03-Peruvian Skies
DR13 -2.04 dB -17.65 dB 6:03 04-Hollow Years
DR12 -0.36 dB -14.44 dB 5:43 05-Burning My Soul
DR12 -1.43 dB -15.43 dB 4:41 06-Hell's Kitchen
DR14 -0.34 dB -16.46 dB 12:24 07-Lines in the Sand
DR12 -2.80 dB -18.01 dB 5:56 08-Take Away My Pain
DR13 -1.66 dB -16.44 dB 5:28 09-Just Let Me Breathe
DR12 -0.11 dB -17.29 dB 6:01 10-Anna Lee
DR14 -0.61 dB -16.88 dB 13:06 11-Trial of Tears
--------------------------------------------------------------------------------

Number of tracks: 11
Official DR value: DR13

Samplerate: 192000 Hz
Channels: 2
Bits per sample: 32
Bitrate: 12288 kbps
Codec: PCM (floating-point)
================================================================================
foobar2000 1.2.5 / Dynamic Range Meter 1.1.1
log date: 2013-05-14 10:37:18

--------------------------------------------------------------------------------
Analyzed: Dream Theater / Falling Into Infinity [ew # 7559-62060-2]
--------------------------------------------------------------------------------

DR Peak RMS Duration Track
--------------------------------------------------------------------------------
DR6 0.00 dB -7.79 dB 8:21 01-New Millennium
DR6 -0.90 dB -7.29 dB 4:59 02-You Not Me
DR7 0.00 dB -8.55 dB 6:43 03-Peruvian Skies
DR7 0.00 dB -8.66 dB 5:54 04-Hollow Years
DR5 0.00 dB -6.18 dB 5:29 05-Burning My Soul
DR6 0.00 dB -7.53 dB 4:17 06-Hell's Kitchen
DR6 0.00 dB -7.72 dB 12:06 07-Lines in the Sand
DR6 0.00 dB -9.26 dB 6:03 08-Take Away My Pain
DR6 0.00 dB -6.96 dB 5:29 09-Just Let Me Breathe
DR7 0.00 dB -9.65 dB 5:52 10-Anna Lee
DR7 0.00 dB -9.05 dB 13:07 11-Trial of Tears
--------------------------------------------------------------------------------

Number of tracks: 11
Official DR value: DR6

Samplerate: 44100 Hz
Channels: 2
Bits per sample: 16
Bitrate: 1411 kbps
Codec: PCM
===============================================================================
Правила, инструкции, FAQ!!!
Торрент  Добавлен [24 авг 2016, 12:05] Скачать торрент Магнет ссылка
Скачать торрент
[ Размер 16.32 КБ / Просмотров 25 ]

Статус
Проверен 
 
Размер  2.94 ГБ
Приватный: Нет (DHT включён)
.torrent скачан  3
 


     Отправить личное сообщение
   
Страница 1 из 1
Показать сообщения за:  Поле сортировки  
Начать новую тему Ответить на тему


Сейчас этот форум просматривают: нет зарегистрированных пользователей и гости: 0


Вы не можете начинать темы
Вы не можете отвечать на сообщения
Вы не можете редактировать свои сообщения
Вы не можете удалять свои сообщения
Вы не можете добавлять вложения

Перейти:  
cron
cron