Начать новую тему Ответить на тему
Статистика раздачи
Размер: 1.17 ГБ | Добавлен: 24 авг 2016, 12:15 | Скачали: 0
Сидеров: 0  [0 байт/сек]    Личеров: 0  [0 байт/сек]
Пред. тема | След. тема 

Автор
Сообщение

СообщениеДобавлено: 24 авг 2016, 12:15 

Ответить с цитатой 

Mushroom - Early One Morning...

#777Жанр: Progressive Folk, Celtic Rock
Год выпуска: 1973
Лейбл: Acme – ADLP 1078 + AD45 1078 (Reissue 2004)
Страна-производитель: UK
Аудио кодек: FLAC
Тип рипа: tracks+.cue
Формат записи: 24/96
Формат раздачи: 24/96
Продолжительность: 56:09 (40:23+15:46)
Треклист:
Side One:
A1 Early One Morning (02:37)
A2The Liathdan (04:20)
A3 Crying (03:54)
A4 Unborn Child (03:45)
A5Johnny The Jumper (03:13)
Side Two:
B1 Potters Wheel (02:22)
B2Standing Alone (05:37)
B3 Devil Among The Tailors (02:46)
B4 Tenpenny Piece (03:29)
B5 Drowsey Maggie (03:55)
B6King Of Alba (04:21)

Bonus Single (7" EP):
A1 The King Of Ireland's Daughter (03:18)
A2 Kings And Queens (03:23)
B1 Met A Friend (03:25)
B2 Unborn Child (Demo) (02:58)
B2Devil Among The Tailors (1st Version) (02:41)

Personnel:
- Aonghus McAnally - guitars, recorder, tinwhistle, vocals
- Cam Lynch "Link" - percussion, bodhran, wind & wood chimes, vocals
- Alan Brown - bass, 12-string guitar, vocals
- Michael Power - organ, harpsichord, mog, vocals
- Pat Collins - violin, electric mandolin, vocals

Recorded & mixed in E.A. Studios, Dublin and A.I.R. Studios, London
Originally released in 1973 by Hawk Records (UK), LP - halpx 116
Одноальбомная группа из Дублина. Сформированная в начале семидесятых, группа "Mushroom" была в то время одним из лидеров ирландской фолк-музыки. Группа состояла из пяти музыкантов. Безусловными лидерами были скрипач Пат Коллинз и гитарист Энгус Мак Налли, сын известного актера Рэя Мак Налли. Трое других участников обогащали саунд группы, помимо основного набора инструментов, звучанием органа, клавесина, свирелей, колокольчиков, мандолины...
Их хит с первого сингла "Devil Among the Tailors" поднялся на второе место в ирландском Тор 20 в 1973 году, а сингл "Kings and Queens" в 1974 году добрался до тринадцатого места хит парада. Вышедший в 1973 году единственный лонгплей "Early One Morning" был продан в кол-ве около 100000 экземпляров и на сегодняшний день оригинальное издание оценивается в среднем около € 1000.
Источник оцифровки: Рип взят из сети. Автор: Fran Solo
Код класса состояния винила: Неизвестно
Vinyl rip, mastered and audio correction: Fran Solo

Equipment
* Direct Drive Turntable: Marantz 6170
* Cartridge: SHURE M97xE (audiophile)
* Capture Equipment: MacPro 2×2 GHz Dual-Core Intel Xeon, integrated Audio
* Preamp: Bellari VP130 Mm Tube Phono Preamplifier
* Soundcard: Intel High Definition Sound
* Edition: Adobe Audition CS 5.5 – xACT & XLD (lossless)

Silences deletion?: Yes
Normalization?: No
DeClick-Izotope RX Advanced: Yes
Scans Full & Corrected LP Cover, 1:1
(All included in 300dpi: front/back – gatefold outside/inside – booklet – insert – envelope – labels, etc.)




=======================================================================
———————————————————————————————-
Analyzed folder: Mushroom – Early One Morning… (LP)
———————————————————————————————-
DR Peak RMS Filename
———————————————————————————————-
DR11 -3.97 dB -18.70 dB 01 Mushroom – LADO 1- Early One Morning.wav
DR12 -1.40 dB -14.98 dB 02 Mushroom – The Liathdan.wav
DR12 -1.94 dB -15.00 dB 03 Mushroom – Crying.wav
DR13 -2.60 dB -18.45 dB 04 Mushroom – Unborn Child.wav
DR12 -1.86 dB -15.89 dB 05 Mushroom – Johnny The Jumper.wav
DR12 -3.78 dB -17.32 dB 06 Mushroom – LADO 2- Potters Wheel.wav
DR13 -1.55 dB -16.87 dB 07 Mushroom – Standing Alone.wav
DR12 -4.21 dB -16.74 dB 08 Mushroom – Devil Among The Tailors.wav
DR10 -5.46 dB -19.55 dB 09 Mushroom – Tenpenny Piece.wav
DR13 -3.24 dB -17.96 dB 10 Mushroom – Drowsey Maggie.wav
DR13 -2.01 dB -17.29 dB 11 Mushroom – King Of Alba.wav
———————————————————————————————-
Number of files: 11
Official DR value: DR12
=======================================================================
———————————————————————————————-
Analyzed folder: Mushroom (EP)
———————————————————————————————-
DR Peak RMS Filename
———————————————————————————————-
DR12 -3.12 dB -17.54 dB 01 Mushroom – LADO 1- The Kings Of Ireland’s Daughter.wav
DR14 -3.47 dB -18.41 dB 02 Mushroom – Kings And Queens.wav
DR13 -3.77 dB -19.14 dB 03 Mushroom – LADO 2- Met A Friend.wav
DR10 -7.99 dB -20.52 dB 04 Mushroom – Unborn Child (Demo).wav
DR13 -6.01 dB -20.93 dB 05 Mushroom – Devil Among The Tailor (1st Version).wav
———————————————————————————————-
Number of files: 5
Official DR value: DR13
=======================================================================
Правила, инструкции, FAQ!!!
Торрент  Добавлен [24 авг 2016, 12:15] Скачать торрент Магнет ссылка
Скачать торрент
[ Размер 15.73 КБ / Просмотров 51 ]

Статус
Проверен 
 
Размер  1.17 ГБ
Приватный: Нет (DHT включён)
.torrent скачан  0
 


     Отправить личное сообщение
   
Страница 1 из 1
Показать сообщения за:  Поле сортировки  
Начать новую тему Ответить на тему


Сейчас этот форум просматривают: нет зарегистрированных пользователей и гости: 0


Вы не можете начинать темы
Вы не можете отвечать на сообщения
Вы не можете редактировать свои сообщения
Вы не можете удалять свои сообщения
Вы не можете добавлять вложения

Перейти:  
cron