Начать новую тему Ответить на тему
Статистика раздачи
Размер: 941.58 МБ | Добавлен: 24 авг 2016, 11:52 | Скачали: 2
Сидеров: 16  [0 байт/сек]    Личеров: 8  [0 байт/сек]
Пред. тема | След. тема 

Автор
Сообщение

СообщениеДобавлено: 24 авг 2016, 11:52 

Ответить с цитатой 

King Crimson - Starless and Bible Black

Жанр: Prog Rock, Art Rock
Год выпуска: 1974
Лейбл: Island Records – ILPS 9275 (A-3U/B-3U)
Страна-производитель: UK
Аудио кодек: FLAC
Тип рипа: sides+.cue
Формат записи: 24/96
Формат раздачи: 24/96
Продолжительность: 46:45
Треклист:

1. The Great Deceiver [4:03]
2. Lament [4:05]
3. We’ll Let You Know [3:42]
4. The Night Watch [4:39]
5. Trio [5:40]
6. The Mincer [4:11]
7. Starless and Bible Black [9:11]
8. Fracture [11:14]

David Cross: Violin, Viola, Keyboards
Robert Fripp: Guitar, Mellotron, Devices
John Wetton: Bass and Voice
William Bruford: Percussives

Produced by King Crimson for E.G. Records
at AIR Studios, London. January 1974.

Acoustic Co-ordinator George Chkiantz
Assistant Engineer Peter Henderson
Cover Design by Tom Phillips
Equipment by Chris and Tex
Acknowledgement to D.T.

Источник оцифровки: выполнена автором раздачи
Код класса состояния винила: VG+
Устройство воспроизведения: Micro Seiki DD7 + Denon-103/Denon AU-320
Предварительный усилитель: Audio-Technica ATPEQ20
АЦП: Tascam US-122mkII
Программа-оцифровщик: Audacity 2.0.1
Обработка: только ручное удаление крупных щелчков
Оцифровку проводил в качестве испытания недавно приобретенного повышающего МС транса. Для того, чтобы понять отличие от самопального на микрофонных байердинамиках, взял хорошо знакомую пластинку. Отличия по звуку были заметны сразу же. Собственно, поэтому решил выложить эту оцифровку здесь, несмотря на то, что их тут предостаточно, включая и мою собственную, сделанную более года назад с американского первого пресса.

--------------------------------------------------------------------------------
foobar2000 1.1.11 / Dynamic Range Meter 1.1.1
log date: 2012-08-15 12:00:41

--------------------------------------------------------------------------------
Analyzed: King Crimson / Starless and Bible Black
--------------------------------------------------------------------------------

DR Peak RMS Duration Track
--------------------------------------------------------------------------------
DR11 -0.64 dB -14.75 dB 4:03 01-The Great Deceiver - recorded at AIR Studios, London, January 1974
DR11 -0.04 dB -14.77 dB 4:05 02-Lament - recorded at AIR studios, London, January 1974
DR14 -0.08 dB -18.58 dB 3:42 03-We`ll Let You Know - recorded at the Apollo, Glasgow, Oct. 23, 1973
DR11 -3.15 dB -20.01 dB 4:39 04-The Night Watch - beginning section recorded at the Concertgebouw, Amsterdam, Nov. 23, 1973
DR13 -6.35 dB -26.20 dB 5:40 05-Trio - recorded at the Concertgebouw, Amsterdam, Nov. 23, 1973
DR13 -3.36 dB -21.45 dB 4:11 06-The Mincer - recorded at Parc des Exposition, Zurich, Nov. 15, 1973
DR12 -0.91 dB -18.39 dB 9:11 07-Starless and Bible Black - recorded at the Concertgebouw, Amsterdam, Nov. 23, 1973
DR12 -0.67 dB -18.60 dB 11:14 08-Fracture - recorded at the Concertgebouw, Amsterdam, Nov. 23, 1973
--------------------------------------------------------------------------------

Number of tracks: 8
Official DR value: DR12

Samplerate: 96000 Hz
Channels: 2
Bits per sample: 24
Bitrate: 2875 kbps
Codec: FLAC
================================================================================
Правила, инструкции, FAQ!!!
Торрент  Добавлен [24 авг 2016, 11:52] Скачать торрент Магнет ссылка
Скачать торрент
[ Размер 19.11 КБ / Просмотров 54 ]

Статус
Проверен 
 
Размер  941.58 МБ
Приватный: Нет (DHT включён)
.torrent скачан  2
 


     Отправить личное сообщение
   
Страница 1 из 1
Показать сообщения за:  Поле сортировки  
Начать новую тему Ответить на тему


Сейчас этот форум просматривают: нет зарегистрированных пользователей и гости: 0


Вы не можете начинать темы
Вы не можете отвечать на сообщения
Вы не можете редактировать свои сообщения
Вы не можете удалять свои сообщения
Вы не можете добавлять вложения

Перейти:  
cron
cron