Начать новую тему Ответить на тему
Статистика раздачи
Размер: 1.35 ГБ | Добавлен: 01 июл 2017, 08:42 | Скачали: 3
Сидеров: 36  [0 байт/сек]    Личеров: 10  [0 байт/сек]
Пред. тема | След. тема 

Автор
Сообщение

СообщениеДобавлено: 01 июл 2017, 08:42 

Ответить с цитатой 

Prince
- Prince Формат записи/Источник записи: [TR24][OF]
Год издания/переиздания диска: 1979/2013
Жанр: R&B
Издатель(лейбл): Rhino/Warner Music
Продолжительность: 41:04

01. I Wanna Be Your Lover
(5:50)
02. Why You Wanna Treat Me So Bad? (3:49)
03. Sexy Dancer (4:19)
04. When We're Dancing Close and Slow (5:19)
05. With You (4:00)
06. Bambi (4:24)
07. Still Waiting (4:28)
08. I Feel for You (3:24)
09. It's Gonna Be Lonely (5:31)
Контейнер: FLAC (*.flac)
Тип рипа: 24bit/192kHz stereo tracks
Формат: PCM
Код:
foobar2000 1.3.10 / Dynamic Range Meter 1.1.1
log date: 2016-04-26 01:50:32
--------------------------------------------------------------------------------
Analyzed: Prince / Prince
--------------------------------------------------------------------------------
DR         Peak         RMS     Duration Track
--------------------------------------------------------------------------------
DR16      -0.02 dB   -18.22 dB      5:50 01-I Wanna Be Your Lover
DR13      -0.45 dB   -17.37 dB      3:49 02-Why You Wanna Treat Me So Bad?
DR17      -0.24 dB   -19.22 dB      4:19 03-Sexy Dancer
DR17      -4.61 dB   -25.85 dB      5:19 04-When We're Dancing Close and Slow
DR16      -0.98 dB   -21.05 dB      4:00 05-With You
DR14       0.00 dB   -17.43 dB      4:24 06-Bambi
DR15      -2.43 dB   -20.64 dB      4:28 07-Still Waiting
DR16      -1.17 dB   -19.11 dB      3:24 08-I Feel for You
DR15      -1.47 dB   -20.22 dB      5:31 09-It's Gonna Be Lonely
--------------------------------------------------------------------------------
Number of tracks:  9
Official DR value: DR16
Samplerate:        192000 Hz
Channels:          2
Bits per sample:   24
Bitrate:           4679 kbps
Codec:             FLAC
================================================================================
Правила, инструкции, FAQ!!!
Торрент  Добавлен [01 июл 2017, 08:42] Скачать торрент Магнет ссылка
Скачать торрент
[ Размер 14.47 КБ / Просмотров 81 ]

Статус
Проверен 
 
Размер  1.35 ГБ
Приватный: Нет (DHT включён)
.torrent скачан  3
 


     Отправить личное сообщение
   
Страница 1 из 1
Показать сообщения за:  Поле сортировки  
Начать новую тему Ответить на тему


Сейчас этот форум просматривают: нет зарегистрированных пользователей и гости: 0


Вы не можете начинать темы
Вы не можете отвечать на сообщения
Вы не можете редактировать свои сообщения
Вы не можете удалять свои сообщения
Вы не можете добавлять вложения

Перейти:  
cron