Начать новую тему Ответить на тему
Статистика раздачи
Размер: 225.53 МБ | Добавлен: 22 июн 2020, 15:38 | Скачали: 0
Сидеров: 0  [0 байт/сек]    Личеров: 0  [0 байт/сек]
Пред. тема | След. тема 

Автор
Сообщение

СообщениеДобавлено: 22 июн 2020, 15:38 

Ответить с цитатой 

Helen Merrill
You and the Night and the Music

Жанр: Post Bop, Vocal Jazz
Носитель: CD
Страна-производитель диска (релиза): Europe
Год издания: 1997
Издатель (лейбл): Gitanes Jazz Productions, Verve Records
Номер по каталогу: 537 087-2
Страна исполнителя (группы): US
Аудиокодек: FLAC (*.flac)
Тип рипа: tracks+.cue
Продолжительность: 00:47:51
Источник: собственный рип
Наличие сканов в содержимом раздачи: нет
01. Song of Delilah
02. Beautiful Love - A Love Like This
03. And in You Came
04. I'll Wind (You're Blowin' Me No Good)
05. I Want to Be Happy
06. My Funny Valentine
07. You and the Night and the Music
08. Young and Folish
09. Don't Leave Me Alone
10. All of Me
11. Street of Dreams
Bass – Charlie Haden (tracks: 1, 3, 5, 7, 9 to 11)
Coordinator [Prepared For Release] – Patrick Votan
Design [Original Cover] – Gilles Guerlet
Drums – Paul Motian (tracks: 1, 3, 5, 7, 9 to 11)
Electric Piano – Torrie Zito (tracks: 3)
Engineer [Assistant] – Joe Lizzi
Executive-Producer – Daniel Richard
Flugelhorn – Tom Harrell (tracks: 1, 5, 8, 9, 10)
Painting [Original Cover Painting] – Charlotte Gastaut
Photography By – Susumu Sato
Photography By [Session] – Cheung Ching Ming
Piano – Masabumi Kikuchi (tracks: 1, 3 to 11), Torrie Zito (tracks: 2)
Producer, Executive-Producer – Jean-Philippe Allard
Producer, Liner Notes – Helen Merrill
Recorded By, Mixed By, Mastered By – Jay Newland
Trumpet – Bob Millikan* (tracks: 1), Tom Harrell (tracks: 9)
Vocals – Helen Merrill
Код:
Exact Audio Copy V1.3 from 2. September 2016
EAC extraction logfile from 31. May 2020, 13:15
Helen Merrill / You and the Night and the Music
Used drive  : PLEXTOR DVDR   PX-891SA   Adapter: 1  ID: 0
Read mode               : Secure
Utilize accurate stream : Yes
Defeat audio cache      : Yes
Make use of C2 pointers : No
Read offset correction                      : 6
Overread into Lead-In and Lead-Out          : No
Fill up missing offset samples with silence : Yes
Delete leading and trailing silent blocks   : No
Null samples used in CRC calculations       : Yes
Used interface                              : Native Win32 interface for Win NT & 2000
Gap handling                                : Appended to previous track
Used output format              : User Defined Encoder
Selected bitrate                : 1024 kBit/s
Quality                         : High
Add ID3 tag                     : No
Command line compressor         : C:\Program Files (x86)\Exact Audio Copy\FLAC\FLAC.EXE
Additional command line options : -8 -V -T "ARTIST=%artist%" -T "TITLE=%title%" -T "ALBUM=%albumtitle%" -T "DATE=%year%" -T "TRACKNUMBER=%tracknr%" -T "GENRE=%genre%" -T "COMMENT=%comment%" -T "BAND=%albuminterpret%" -T "ALBUMARTIST=%albuminterpret%" -T "COMPOSER=%composer%" %haslyrics%--tag-from-file=LYRICS="%lyricsfile%"%haslyrics% -T "DISCNUMBER=%cdnumber%" -T "TOTALDISCS=%totalcds%" -T "TOTALTRACKS=%numtracks%" %hascover%--picture="%coverfile%"%hascover% %source% -o %dest%
TOC of the extracted CD
     Track |   Start  |  Length  | Start sector | End sector
    ---------------------------------------------------------
        1  |  0:00.00 |  4:16.30 |         0    |    19229
        2  |  4:16.30 |  5:20.55 |     19230    |    43284
        3  |  9:37.10 |  4:23.22 |     43285    |    63031
        4  | 14:00.32 |  3:03.00 |     63032    |    76756
        5  | 17:03.32 |  3:58.38 |     76757    |    94644
        6  | 21:01.70 |  4:23.00 |     94645    |   114369
        7  | 25:24.70 |  3:45.62 |    114370    |   131306
        8  | 29:10.57 |  6:47.10 |    131307    |   161841
        9  | 35:57.67 |  3:28.53 |    161842    |   177494
       10  | 39:26.45 |  4:14.35 |    177495    |   196579
       11  | 43:41.05 |  4:10.02 |    196580    |   215331
Track  1
     Filename H:\Torrents\Merrill, Helen\Helen Merrill (1997) [537 087-2] You and the Night and the Music\01. Song of Delilah.wav
     Pre-gap length  0:00:02.00
     Peak level 91.3 %
     Extraction speed 1.7 X
     Track quality 99.5 %
     Test CRC 1792AFF6
     Copy CRC 1792AFF6
     Accurately ripped (confidence 14)  [CB66D091]  (AR v2)
     Copy OK
Track  2
     Filename H:\Torrents\Merrill, Helen\Helen Merrill (1997) [537 087-2] You and the Night and the Music\02. Beautiful Love - A Love Like This.wav
     Peak level 96.3 %
     Extraction speed 2.2 X
     Track quality 99.6 %
     Test CRC 4F1B007F
     Copy CRC 4F1B007F
     Accurately ripped (confidence 14)  [A2D9ECAC]  (AR v2)
     Copy OK
Track  3
     Filename H:\Torrents\Merrill, Helen\Helen Merrill (1997) [537 087-2] You and the Night and the Music\03. And in You Came.wav
     Peak level 95.5 %
     Extraction speed 1.9 X
     Track quality 99.5 %
     Test CRC 1E2612E5
     Copy CRC 1E2612E5
     Accurately ripped (confidence 14)  [A51E1349]  (AR v2)
     Copy OK
Track  4
     Filename H:\Torrents\Merrill, Helen\Helen Merrill (1997) [537 087-2] You and the Night and the Music\04. I'll Wind (You're Blowin' Me No Good).wav
     Peak level 90.4 %
     Extraction speed 1.7 X
     Track quality 99.4 %
     Test CRC D326C360
     Copy CRC D326C360
     Accurately ripped (confidence 15)  [100D9645]  (AR v2)
     Copy OK
Track  5
     Filename H:\Torrents\Merrill, Helen\Helen Merrill (1997) [537 087-2] You and the Night and the Music\05. I Want to Be Happy.wav
     Peak level 96.1 %
     Extraction speed 2.3 X
     Track quality 99.6 %
     Test CRC 72407E9A
     Copy CRC 72407E9A
     Accurately ripped (confidence 14)  [5A52A4AE]  (AR v2)
     Copy OK
Track  6
     Filename H:\Torrents\Merrill, Helen\Helen Merrill (1997) [537 087-2] You and the Night and the Music\06. My Funny Valentine.wav
     Peak level 83.8 %
     Extraction speed 4.1 X
     Track quality 99.8 %
     Test CRC 6D73AD38
     Copy CRC 6D73AD38
     Accurately ripped (confidence 15)  [E448D6D8]  (AR v2)
     Copy OK
Track  7
     Filename H:\Torrents\Merrill, Helen\Helen Merrill (1997) [537 087-2] You and the Night and the Music\07. You and the Night and the Music.wav
     Peak level 90.8 %
     Extraction speed 5.1 X
     Track quality 99.9 %
     Test CRC 810CBABF
     Copy CRC 810CBABF
     Accurately ripped (confidence 15)  [84C73149]  (AR v2)
     Copy OK
Track  8
     Filename H:\Torrents\Merrill, Helen\Helen Merrill (1997) [537 087-2] You and the Night and the Music\08. Young and Folish.wav
     Peak level 95.0 %
     Extraction speed 6.0 X
     Track quality 99.9 %
     Test CRC C1ABDA86
     Copy CRC C1ABDA86
     Accurately ripped (confidence 15)  [B44CF466]  (AR v2)
     Copy OK
Track  9
     Filename H:\Torrents\Merrill, Helen\Helen Merrill (1997) [537 087-2] You and the Night and the Music\09. Don't Leave Me Alone.wav
     Peak level 97.5 %
     Extraction speed 8.2 X
     Track quality 100.0 %
     Test CRC B0BDA46A
     Copy CRC B0BDA46A
     Accurately ripped (confidence 15)  [DF2C9EF4]  (AR v2)
     Copy OK
Track 10
     Filename H:\Torrents\Merrill, Helen\Helen Merrill (1997) [537 087-2] You and the Night and the Music\10. All of Me.wav
     Peak level 97.0 %
     Extraction speed 9.1 X
     Track quality 100.0 %
     Test CRC 5FFA5AC5
     Copy CRC 5FFA5AC5
     Accurately ripped (confidence 15)  [FE3E0723]  (AR v2)
     Copy OK
Track 11
     Filename H:\Torrents\Merrill, Helen\Helen Merrill (1997) [537 087-2] You and the Night and the Music\11. Street of Dreams.wav
     Peak level 97.5 %
     Extraction speed 7.7 X
     Track quality 99.9 %
     Test CRC 4B6C3FD6
     Copy CRC 4B6C3FD6
     Accurately ripped (confidence 15)  [2CDD05CF]  (AR v2)
     Copy OK
All tracks accurately ripped
No errors occurred
End of status report
==== Log checksum C25466A9B5B2ED5E16C21C45EAC4032523AB9B97B77D894F569EB84DD471A870 ====
Код:
REM GENRE Jazz
REM DATE 1997
REM DISCID 960B370B
REM COMMENT "ExactAudioCopy v1.3"
CATALOG 0000000000000
PERFORMER "Helen Merrill"
TITLE "You and the Night and the Music"
REM COMPOSER ""
FILE "01. Song of Delilah.wav" WAVE
  TRACK 01 AUDIO
    TITLE "Song of Delilah"
    PERFORMER "Helen Merrill"
    REM COMPOSER ""
    ISRC FRZ039603240
    INDEX 01 00:00:00
FILE "02. Beautiful Love - A Love Like This.wav" WAVE
  TRACK 02 AUDIO
    TITLE "Beautiful Love / A Love Like This"
    PERFORMER "Helen Merrill"
    REM COMPOSER ""
    ISRC FRZ039603250
    INDEX 01 00:00:00
FILE "03. And in You Came.wav" WAVE
  TRACK 03 AUDIO
    TITLE "And in You Came"
    PERFORMER "Helen Merrill"
    REM COMPOSER ""
    ISRC FRZ039603260
    INDEX 01 00:00:00
FILE "04. I'll Wind (You're Blowin' Me No Good).wav" WAVE
  TRACK 04 AUDIO
    TITLE "I'll Wind (You're Blowin' Me No Good)"
    PERFORMER "Helen Merrill"
    REM COMPOSER ""
    ISRC FRZ039603270
    INDEX 01 00:00:00
FILE "05. I Want to Be Happy.wav" WAVE
  TRACK 05 AUDIO
    TITLE "I Want to Be Happy"
    PERFORMER "Helen Merrill"
    REM COMPOSER ""
    ISRC FRZ039603280
    INDEX 01 00:00:00
FILE "06. My Funny Valentine.wav" WAVE
  TRACK 06 AUDIO
    TITLE "My Funny Valentine"
    PERFORMER "Helen Merrill"
    REM COMPOSER ""
    ISRC FRZ039603350
    INDEX 01 00:00:00
FILE "07. You and the Night and the Music.wav" WAVE
  TRACK 07 AUDIO
    TITLE "You and the Night and the Music"
    PERFORMER "Helen Merrill"
    REM COMPOSER ""
    ISRC FRZ039603380
    INDEX 01 00:00:00
FILE "08. Young and Folish.wav" WAVE
  TRACK 08 AUDIO
    TITLE "Young and Folish"
    PERFORMER "Helen Merrill"
    REM COMPOSER ""
    ISRC FRZ039603360
    INDEX 01 00:00:00
FILE "09. Don't Leave Me Alone.wav" WAVE
  TRACK 09 AUDIO
    TITLE "Don't Leave Me Alone"
    PERFORMER "Helen Merrill"
    REM COMPOSER ""
    ISRC FRZ039603320
    INDEX 01 00:00:00
FILE "10. All of Me.wav" WAVE
  TRACK 10 AUDIO
    TITLE "All of Me"
    PERFORMER "Helen Merrill"
    REM COMPOSER ""
    ISRC FRZ039603330
    INDEX 01 00:00:00
FILE "11. Street of Dreams.wav" WAVE
  TRACK 11 AUDIO
    TITLE "Street of Dreams"
    PERFORMER "Helen Merrill"
    REM COMPOSER ""
    ISRC FRZ039603370
    INDEX 01 00:00:00
Правила, инструкции, FAQ!!!
Торрент  Добавлен [22 июн 2020, 15:38] Скачать торрент Магнет ссылка
Скачать торрент
[ Размер 19.01 КБ / Просмотров 1 ]

Статус
Проверен 
 
Размер  225.53 МБ
Приватный: Нет (DHT включён)
.torrent скачан  0
 


     Отправить личное сообщение
   
Страница 1 из 1
Показать сообщения за:  Поле сортировки  
Начать новую тему Ответить на тему


Сейчас этот форум просматривают: нет зарегистрированных пользователей и гости: 0


Вы не можете начинать темы
Вы не можете отвечать на сообщения
Вы не можете редактировать свои сообщения
Вы не можете удалять свои сообщения
Вы не можете добавлять вложения

Перейти:  
cron
cron