Начать новую тему Ответить на тему
Статистика раздачи
Размер: 1.31 ГБ | Добавлен: 24 авг 2016, 14:16 | Скачали: 0
Сидеров: 7  [0 байт/сек]    Личеров: 3  [0 байт/сек]
Пред. тема | След. тема 

Автор
Сообщение

СообщениеДобавлено: 24 авг 2016, 14:16 

Ответить с цитатой 

Carole King - The Carnegie Hall Concert June 18, 1971

Жанр: Pop-Rock, Singer-Songwriter, Piano Rock
Первоначальный год выпуска альбома: 1996 (Epic/Sony Legacy)
Год выпуска данного винила: 2011
Лейбл: MFSL
Страна-производитель: USA
Аудио кодек: FLAC
Тип рипа: tracks+.cue
Формат записи: 24/192
Формат раздачи: 24/96
Продолжительность: 1:12:14

Треклист:

Side A

"I Feel the Earth Move" – 3:36
"Home Again" – 2:45
"After All This Time" – 3:19
"Child of Mine" (Gerry Goffin, King) – 4:03
"Carry Your Load" – 2:59

Side B
"No Easy Way Down" – (Goffin, King) 5:32
"Song of Long Ago" – 3:24
"Snow Queen" (Goffin, King) – 3:51
"Smackwater Jack" (Goffin, King) – 3:49

Side C

"So Far Away" – 4:12
"It's Too Late" (King, Toni Stern) – 4:22
"Eventually" (Goffin, King) – 4:38
"Way over Yonder" – 4:13
"Beautiful" – 2:39

Side D

"You've Got a Friend" [Performed with James Taylor] – 6:25
"Will You Still Love Me Tomorrow?" / "Some Kind of Wonderful" / "Up on the Roof" [medley; performed with James Taylor] (Goffin, King) – 7:46
"(You Make Me Feel Like) A Natural Woman" (Goffin, King, Jerry Wexler) – 4:09

Все песни написаны Carole King, если не указано иное.
Кэрол Кинг (англ. Carole King, наст. имя — Кэрол Клейн, англ. Carol Klein, без «е», позже добавленного; род. 9 февраля 1942 года, Бруклин, Нью-Йорк) — американская певица, пианистка, и автор песен, в 1960-х годах вместе с мужем Джерри Гоффином написавшая более двух десятков хитов для разных исполнителей, а в начале семидесятых добившаяся успеха на сольном поприще — прежде всего, с альбомом Tapestry, который на протяжении 15 недель возглявлял Billboard 200 и оставался в списках более шести лет.

Вскоре после выхода Tapestry состоялся собственно этот концерт в Карнеги-холле. Это было первое выступление Кэрол Кинг на публике! В некотором роде это unplugged (хотя это слово тогда еще не употреблялось). Концерт был записан, но впервые был издан лишь 25 лет спустя, в 1996 г. А в 2011 подоспел и винил.
Carole King – фортепиано, вокал
Danny Kortchmar – гитара
Charles Larkey - бас
David Campbell and etc – струнные (не указано на конверте)
James Taylor – вокал в D1, D3
MFSL 180g High Definition Vinyl 2 LP-Set
Номер по каталогу: 2- 351
Винил на discogs.com: http://www.discogs.com/Carole-King-The-Carnegie-Hall-Concert/release/3042980
Специальный антистатический и антипылевой внутренний конверт
Код класса состояния винила: судя по году выпуска, тянет на NM
Изображения (фото) полиграфии: в наличии (полный комплект, Hi-Res)
Предпосмотреть

Источник оцифровки: Авакс, автор - aksman
Предварительная чистка винила: RCM Hannl 'limited' with "Rotating Brush"
Устройство воспроизведения: Music Hall MMF 9.1 (Tonearm: Pro-Ject 9cc evo with Pure Silver Wires, Cartridge: Nagaoka MP-500)
Предварительный усилитель: Brocksieper Phonomax (Tube Phono PreAmp)
АЦП: E-MU 0404 external USB 2.0 Audiointerface
Кабели: Silent Wire NF5
Программа-оцифровщик: WaveLab 6
Обработка: WaveLab 6 - удаление щелчков вручную

Последовательность: Vacuum cleaning > TT > Brocksieper Phonomax > E-MU 0404 > WaveLab 6 (24/192) > manual click removal >
analyze (no clipping, no DC Bias offset) > resampling and dithering with iZotope RX Advanced 2.00
> split into individual Tracks > FLAC encoded (Vers. 1.21)
--------------------------------------------------------------------------------
Analyzed: Carole King / The Carnegie Hall Concert, June 18, 1971 [MFSL 2-351]
--------------------------------------------------------------------------------

DR Peak RMS Duration Track
--------------------------------------------------------------------------------
DR12 -3.10 dB -19.32 dB 3:54 01-I Feel the Earth Move
DR12 -4.30 dB -21.88 dB 2:41 02-Home Again
DR11 -3.74 dB -19.74 dB 3:32 03-After All This Time
DR14 -2.34 dB -20.88 dB 3:48 04-Child of Mine
DR12 -3.13 dB -18.91 dB 3:00 05-Carry Your Load
DR13 -2.59 dB -21.46 dB 5:59 06-No Easy Way Down
DR12 -1.23 dB -17.78 dB 2:49 07-Song of Long Ago
DR12 -2.08 dB -18.10 dB 4:23 08-Snow Queen
DR13 -0.76 dB -16.34 dB 3:14 09-Smackwater Jack
DR12 -2.71 dB -19.52 dB 4:38 10-So Far Away
DR12 -1.74 dB -17.47 dB 4:01 11-It's Too Late
DR12 -5.60 dB -22.57 dB 4:37 12-Eventually
DR10 -4.66 dB -19.16 dB 4:12 13-Way over Yonder
DR11 -3.86 dB -19.08 dB 2:46 14-Beautiful
DR14 -0.89 dB -19.86 dB 6:34 15-You've Got a Friend (Performed with James Taylor)
DR13 -1.24 dB -18.77 dB 8:00 16-"Will You Still Love Me Tomorrow?" / "Some Kind of Wonderful" / "Up on the Roof" (Performed with James Taylor)
DR12 -4.71 dB -21.09 dB 3:58 17-(You Make Me Feel Like) A Natural Woman
--------------------------------------------------------------------------------

Number of tracks: 17
Maximum peak difference (-0.76 dB - -5.60 dB): 4.84 dB

Official DR value (Song Mode): DR12
================================================================================
Стрессопонижающий .md5 - в составе раздачи.
ENJOY!
Правила, инструкции, FAQ!!!
Торрент  Добавлен [24 авг 2016, 14:16] Скачать торрент Магнет ссылка
Скачать торрент
[ Размер 15.6 КБ / Просмотров 6 ]

Статус
Проверен 
 
Размер  1.31 ГБ
Приватный: Нет (DHT включён)
.torrent скачан  0
 


     Отправить личное сообщение
   
Страница 1 из 1
Показать сообщения за:  Поле сортировки  
Начать новую тему Ответить на тему


Сейчас этот форум просматривают: нет зарегистрированных пользователей и гости: 0


Вы не можете начинать темы
Вы не можете отвечать на сообщения
Вы не можете редактировать свои сообщения
Вы не можете удалять свои сообщения
Вы не можете добавлять вложения

Перейти:  
cron
cron