Начать новую тему Ответить на тему
Статистика раздачи
Размер: 1.43 ГБ | Добавлен: 24 авг 2016, 11:35 | Скачали: 0
Сидеров: 3  [0 байт/сек]    Личеров: 1  [0 байт/сек]
Пред. тема | След. тема 

Автор
Сообщение

СообщениеДобавлено: 24 авг 2016, 11:35 

Ответить с цитатой 

Modus – The Best Girls

Жанр: Pop Rock
Носитель: LP
Год выпуска: 1987 (Repress)
Год первой публикации: 1985
Лейбл: Opus ‎(9113 1587)
Страна-производитель: Czechoslovakia
Аудио кодек: FLAC
Тип рипа: image+.cue
Формат записи: 24/192
Формат раздачи: 24/192
Продолжительность: 00:39:29
Треклист:
01. Liar On The Run (2:53)
02. Second-Hand Man (4:02)
03. I Am So Clear (5:28)
04. Karay Zee Feel In (3:35)
05. Skyline Woman (4:21)
06. Blondes Only Want To Play (3:16)
07. Gold (3:41)
08. 99 Light Years (4:21)
09. Spase Troopers (3:35)
10. No Time (4:17)

Источник оцифровки: автором раздачи
Код класса состояния винила: Ex-
Устройство воспроизведения: Pro-Ject 1-Xpression III
Головка звукоснимателя: Goldring 1012 GX
Предварительный усилитель: Pro-Ject Tube Box
АЦП: ESI Juli@
Программа-оцифровщик: WavePurity
Обработка: Нет
Доп. информация:
Код:
foobar2000 1.3.2 / Dynamic Range Meter 1.1.1
log date: 2015-04-03 19:36:38

--------------------------------------------------------------------------------
Analyzed: Modus /  The Best Girls
--------------------------------------------------------------------------------

DR         Peak         RMS     Duration Track
--------------------------------------------------------------------------------
DR12      -0.81 dB   -15.45 dB      2:53 01-Liar On The Run
DR12      -2.37 dB   -16.08 dB      4:02 02-Second-Hand Man
DR11      -3.55 dB   -17.50 dB      5:28 03-I Am So Clear
DR11      -3.38 dB   -16.39 dB      3:35 04-Karay Zee Feel In
DR11      -3.78 dB   -17.65 dB      4:21 05-Skyline Woman
DR12      -3.84 dB   -17.90 dB      3:16 06-Blondes Only Want To Play
DR12      -3.59 dB   -16.58 dB      3:41 07-Gold
DR10      -5.80 dB   -18.86 dB      4:21 08-99 Light Years
DR10      -4.59 dB   -17.42 dB      3:35 09-Spase Troopers
DR11      -4.03 dB   -16.85 dB      4:17 10-No Time
--------------------------------------------------------------------------------

Number of tracks:  10
Official DR value: DR11

Samplerate:        192000 Hz
Channels:          2
Bits per sample:   24
Bitrate:           5142 kbps
Codec:             FLAC
================================================================================
Правила, инструкции, FAQ!!!
Торрент  Добавлен [24 авг 2016, 11:35] Скачать торрент Магнет ссылка
Скачать торрент
[ Размер 15.05 КБ / Просмотров 43 ]

Статус
Проверен 
 
Размер  1.43 ГБ
Приватный: Нет (DHT включён)
.torrent скачан  0
 


     Отправить личное сообщение
   
Страница 1 из 1
Показать сообщения за:  Поле сортировки  
Начать новую тему Ответить на тему


Сейчас этот форум просматривают: нет зарегистрированных пользователей и гости: 0


Вы не можете начинать темы
Вы не можете отвечать на сообщения
Вы не можете редактировать свои сообщения
Вы не можете удалять свои сообщения
Вы не можете добавлять вложения

Перейти:  
cron
cron