Начать новую тему Ответить на тему
Статистика раздачи
Размер: 3.73 ГБ | Добавлен: 24 авг 2016, 14:20 | Скачали: 1
Сидеров: 3  [0 байт/сек]    Личеров: 2  [0 байт/сек]
Пред. тема | След. тема 

Автор
Сообщение

СообщениеДобавлено: 24 авг 2016, 14:20 

Ответить с цитатой 

George Harrison / Living In The Material World, Somewhere In England

Жанр: Pop Rock, Classic Rock
Год выпуска: 1973, 1981
Лейбл: Apple Records / SMAS-3410, Dark Horse Records / DHK 3492
Страна-производитель: USA
Аудио кодек: FLAC
Тип рипа: tracks+.cue
Формат записи: 24/192
Формат раздачи: 24/192
Продолжительность: 44:04, 39:29
Источник оцифровки: автором раздачи
Код класса состояния винила: VG+
Устройство воспроизведения: Omnitronic BD1100/Denon DL-103 mc
Предварительный усилитель: Nad PP2 / Arcam Delta
АЦП: M-Audio Audiophile 192
Программа-оцифровщик: Sound Forge Pro 10
Обработка: Sound Forge Pro 10
#777Треклист:
A1. Give Me Love - (Give Me Peace On Earth) 3:32
A2. Sue Me, Sue You Blues 4:43
A3. The Light That Has Lighted The World 3:28
A4. Don't Let Me Wait Too Long 2:54
A5. Who Can See It 3:49
A6. Living In The Material World 5:27
B1. The Lord Loves The One (That Loves The Lord) 4:32
B2. Be Here Now 4:07
B3. Try Some Buy Some Drums – Jim Gordon Producer – Phil Spector 4:06
B4. The Day The World Gets 'Round 2:50
B5. That Is All 3:40
REM GENRE Pop Rock
REM DATE 1973
REM MViktor_VINYLRIP
REM Apple Records – SMAS-3410., USA
REM Producer - George Harrison
REM Recorded at Apple Studio 3 Savile Row, London,W.I.,England
PERFORMER "George Harrison"
TITLE "Living In The Material World"
FILE "SMAS-3410 One.flac" WAVE
TRACK 01 AUDIO
TITLE "Give Me Love - (Give Me Peace On Earth)"
PERFORMER "George Harrison"
INDEX 01 00:00:00
TRACK 02 AUDIO
TITLE "Sue Me, Sue You Blues"
PERFORMER "George Harrison"
INDEX 01 03:38:40
TRACK 03 AUDIO
TITLE "The Light That Has Lighted The World"
PERFORMER "George Harrison"
INDEX 01 08:29:00
TRACK 04 AUDIO
TITLE "Don't Let Me Wait Too Long"
PERFORMER "George Harrison"
INDEX 01 12:03:00
TRACK 05 AUDIO
TITLE "Who Can See It"
PERFORMER "George Harrison"
INDEX 01 15:01:55
TRACK 06 AUDIO
TITLE "Living In The Material World"
PERFORMER "George Harrison"
INDEX 01 18:55:20
FILE "SMAS-3410 Two.flac" WAVE
TRACK 07 AUDIO
TITLE "The Lord Loves The One (That Loves The Lord)"
PERFORMER "George Harrison"
INDEX 01 00:00:00
TRACK 08 AUDIO
TITLE "Be Here Now"
PERFORMER "George Harrison"
INDEX 01 04:38:05
TRACK 09 AUDIO
TITLE "Try Some Buy Some"
PERFORMER "George Harrison"
INDEX 01 08:51:00
TRACK 10 AUDIO
TITLE "The Day The World Gets 'Round"
PERFORMER "George Harrison"
INDEX 01 13:01:20
TRACK 11 AUDIO
TITLE "That Is All"
PERFORMER "George Harrison"
INDEX 01 15:57:10

A4. Don't Let Me Wait Too Long & B4. The Day The World Gets 'Round


Recorded At – Apple Studios
Phonographic Copyright (p) – The Gramophone Co. Ltd.
Manufactured By – Apple Records, Inc.

Bass – Klaus Voormann
Design – Wilkes & Braun Inc.
Drums – Jim Keltner, Ringo Starr
Engineer [Recording And Remix] – Philip McDonald
Guitar, Written-By, Producer – George Harrison
Keyboards – Gary Wright, Nicky Hopkins
Mastered By – Doug Sax
Photography By [Cover] – Kendall L. Johnson
Photography By [Inside] – Ken Marcus
Saxophone, Flute – Jim Horn
Strings – John Barham
Tabla – Zakir Hussein*

Released with a fold-out lyrics insert in a gatefold cover.

Recorded at Apple Studio
3 Savile Row, London, W.I., England
Mastered at Mastering Lab

All Glories To Sri Krsna

℗1973 The Gramophone Company Limited.
Manufactured by Apple Records, Inc., 1370 Avenue of the Americas, New York, N.Y.
Printed in U.S.A.

Matrix / Runout (Run-out etching (by hand) side A): SMAS-1-3410 Z-4 #3 HARE

KRSNA T.M.L.
Matrix / Runout (Run-out etching (by hand) side B): SMAS-2-3410 Z-3 #3 HARE

RAMA T.M.L.
#777Треклист:
A1. Blood From A Clone 3:58
A2. Unconsciousness Rules 3:04
A3. Life Itself 4:24
A4. All Those Years Ago 3:43
A5. Baltimore Oriole Written-By – H.Carmichael, P.F.Webster 3:57
B1. Teardrops 4:04
B2. That Which I Have Lost 3:42
B3. Writing's On The Wall 3:57
B4. Hong Kong Blues Written-By – H.Carmichael 2:54
B5. Save The World 4:56
REM GENRE Pop Rock, Classic Rock
REM DATE 1981
REM MViktor_VINYLRIP
REM Dark Horse Records – DHK 3492., US
REM Producer - George Harrison
PERFORMER "George Harrison"
TITLE "Somewhere In England"
FILE "DHK 3492 I.flac" WAVE
TRACK 01 AUDIO
TITLE "Blood From A Clone"
PERFORMER "George Harrison"
INDEX 01 00:00:00
TRACK 02 AUDIO
TITLE "Unconsciousness Rules"
PERFORMER "George Harrison"
INDEX 01 04:04:10
TRACK 03 AUDIO
TITLE "Life Itself"
PERFORMER "George Harrison"
INDEX 01 07:11:10
TRACK 04 AUDIO
TITLE "All Those Years Ago"
PERFORMER "George Harrison"
INDEX 01 11:38:50
TRACK 05 AUDIO
TITLE "Baltimore Oriole"
PERFORMER "H.Carmichael, P.F.Webster"
INDEX 01 15:26:20
FILE "DHK 3492 II.flac" WAVE
TRACK 06 AUDIO
TITLE "Teardrops"
PERFORMER "George Harrison"
INDEX 01 00:00:00
TRACK 07 AUDIO
TITLE "That Which I Have Lost"
PERFORMER "George Harrison"
INDEX 01 04:11:00
TRACK 08 AUDIO
TITLE "Writing's On The Wall"
PERFORMER "George Harrison"
INDEX 01 07:59:40
TRACK 09 AUDIO
TITLE "Hong Kong Blues"
PERFORMER "H.Carmichael"
INDEX 01 12:04:00
TRACK 10 AUDIO
TITLE "Save The World"
PERFORMER "George Harrison"
INDEX 01 15:02:30

A2. Unconsciousness Rules & B4. Hong Kong Blues

Bass – Willie Weeks
Bass, Tuba – Herbie Flowers
Drums – Dave Mattacks, Jim Keltner, Ringo Starr
Drums, Percussion, Keyboards, Synthesizer, Producer, Artwork By [Cover Concept]

– Ray Cooper
Engineer – Phil McDonald
Horns, Synthesizer [Lyricon] – Tom Scott
Keyboards, Synthesizer – Al Kooper, Gary Brooker, Mike Moran, Neil Larsen
Mastered By [Re-mastering] – Simon Heyworth
Photography – Caroline Irwin
Tabla – Alla Rakha
Vocals, Guitar, Keyboards, Synthesizer, Producer – George Harrison
Written-By – George Harrison (tracks: A1 to A4, B1 to B3, B5)
Диски из коллекции sinicinal
Правила, инструкции, FAQ!!!
Торрент  Добавлен [24 авг 2016, 14:20] Скачать торрент Магнет ссылка
Скачать торрент
[ Размер 21.2 КБ / Просмотров 19 ]

Статус
Проверен 
 
Размер  3.73 ГБ
Приватный: Нет (DHT включён)
.torrent скачан  1
 


     Отправить личное сообщение
   
Страница 1 из 1
Показать сообщения за:  Поле сортировки  
Начать новую тему Ответить на тему


Сейчас этот форум просматривают: нет зарегистрированных пользователей и гости: 0


Вы не можете начинать темы
Вы не можете отвечать на сообщения
Вы не можете редактировать свои сообщения
Вы не можете удалять свои сообщения
Вы не можете добавлять вложения

Перейти:  
cron