Начать новую тему Ответить на тему
Статистика раздачи
Размер: 405.2 МБ | Добавлен: 08 мар 2014, 13:04 | Скачали: 1
Сидеров: 3  [0 байт/сек]    Личеров: 1  [0 байт/сек]
Пред. тема | След. тема 

Автор
Сообщение

СообщениеДобавлено: 08 мар 2014, 13:04 

Ответить с цитатой 

Poison - Icon - 2013

Год: 2013
Жанр: Hard Rock, Glam Rock
Страна: USA
Издатель: Capitol Records [5099992841420]
Продолжительность: 00:45:42

Кодек: FLAC
Битрейт: lossless
Тип рипа: image+.cue
Треклист:

01. Talk Dirty To Me
02. I Won't Forget You
03. Nothin' But A Good Time
04. Fallen Angel
05. Every Rose Has It's Thorn
06. Your Mama Don't Dance
07. Unskinny Bob
08. Something To Believe In
09. Ride The Wind
10. Life Goes On
11. Stand
Код:
Код:
Exact Audio Copy V1.0 beta 3 from 29. August 2011

EAC extraction logfile from 5. March 2014, 0:19

Poison / Icons

Used drive  : SAMSUNG DVD-ROM SD-616E   Adapter: 3  ID: 0

Read mode               : Secure
Utilize accurate stream : Yes
Defeat audio cache      : Yes
Make use of C2 pointers : No

Read offset correction                      : 12
Overread into Lead-In and Lead-Out          : No
Fill up missing offset samples with silence : Yes
Delete leading and trailing silent blocks   : No
Null samples used in CRC calculations       : Yes
Used interface                              : Native Win32 interface for Win NT & 2000

Used output format              : User Defined Encoder
Selected bitrate                : 768 kBit/s
Quality                         : High
Add ID3 tag                     : No
Command line compressor         : C:\Program Files\Exact Audio Copy\FLAC\FLAC.EXE
Additional command line options : -6 -V -T "ARTIST=%artist%" -T "TITLE=%title%" -T "ALBUM=%albumtitle%" -T "DATE=%year%" -T "TRACKNUMBER=%tracknr%" -T "GENRE=%genre%" -T "COMMENT=%comment%" -T "BAND=%albuminterpret%" -T "ALBUMARTIST=%albuminterpret%" -T "COMPOSER=%composer%" %haslyrics%--tag-from-file=LYRICS="%lyricsfile%"%haslyrics% -T "DISCNUMBER=%cdnumber%" -T "TOTALDISCS=%totalcds%" -T "TOTALTRACKS=%numtracks%" %hascover%--picture="%coverfile%"%hascover% %source% -o %dest%

TOC of the extracted CD

     Track |   Start  |  Length  | Start sector | End sector
    ---------------------------------------------------------
        1  |  0:00.00 |  3:45.38 |         0    |    16912
        2  |  3:45.38 |  3:35.43 |     16913    |    33080
        3  |  7:21.06 |  3:44.72 |     33081    |    49952
        4  | 11:06.03 |  3:57.27 |     49953    |    67754
        5  | 15:03.30 |  4:20.24 |     67755    |    87278
        6  | 19:23.54 |  3:01.18 |     87279    |   100871
        7  | 22:24.72 |  3:49.40 |    100872    |   118086
        8  | 26:14.37 |  5:30.50 |    118087    |   142886
        9  | 31:45.12 |  3:53.15 |    142887    |   160376
       10  | 35:38.27 |  4:48.62 |    160377    |   182038
       11  | 40:27.14 |  5:14.41 |    182039    |   205629

Range status and errors

Selected range

     Filename C:\Documents and Settings\Borya\Desktop\icpoi\Poison - Icons.wav

     Peak level 96.8 %
     Extraction speed 3.2 X
     Range quality 100.0 %
     Test CRC 1A90A71E
     Copy CRC 1A90A71E
     Copy OK

No errors occurred

AccurateRip summary

Track  1  not present in database
Track  2  not present in database
Track  3  not present in database
Track  4  not present in database
Track  5  not present in database
Track  6  not present in database
Track  7  not present in database
Track  8  not present in database
Track  9  not present in database
Track 10  not present in database
Track 11  not present in database

None of the tracks are present in the AccurateRip database

End of status report

==== Log checksum 8BE174072EF49A0FE45F41AD5137A0B65C11767F27FA287DABD4304BE17567D4 ====
Код:
Код:
-----------------------

DON'T MODIFY THIS FILE

-----------------------

PERFORMER: auCDtect Task Manager, ver. 1.6.0 RC1 build 1.6.0.1
Copyright (c) 2008-2010 y-soft. All rights reserved
http:/y-soft.org

ANALYZER: auCDtect: CD records authenticity detector, version 0.8.2
Copyright (c) 2004 Oleg Berngardt. All rights reserved.
Copyright (c) 2004 Alexander Djourik. All rights reserved.

FILE: Poison - Icons.flac
  Size: 360067137 Hash: 6595645AB2B09973A093E0C4271F566A Accuracy: -m0
  Conclusion: CDDA 100%
  Signature: B024AAD94827B04DEDDCDA8971796D470D8C83EF
Правила, инструкции, FAQ!!!
Торрент  Добавлен [08 мар 2014, 13:04] Скачать торрент Магнет ссылка
Скачать торрент
[ Размер 16.93 КБ / Просмотров 20 ]

Статус  
 
Размер  405.2 МБ
Приватный: Нет (DHT включён)
.torrent скачан  1
 


     Отправить личное сообщение
   
Страница 1 из 1
Показать сообщения за:  Поле сортировки  
Начать новую тему Ответить на тему


Сейчас этот форум просматривают: нет зарегистрированных пользователей и гости: 0


Вы не можете начинать темы
Вы не можете отвечать на сообщения
Вы не можете редактировать свои сообщения
Вы не можете удалять свои сообщения
Вы не можете добавлять вложения

Перейти:  
cron