Начать новую тему Ответить на тему
Статистика раздачи
Размер: 4.47 ГБ | Добавлен: 16 мар 2014, 00:22 | Скачали: 0
Сидеров: 2  [0 байт/сек]    Личеров: 1  [0 байт/сек]
Пред. тема | След. тема 

Автор
Сообщение

СообщениеДобавлено: 16 мар 2014, 00:22 

Ответить с цитатой 

Paul Simon - 9 Albums Blu-Spec CD (2011)

Год: 2011
Страна-производитель диска: Japan
Издатель (лейбл): Sony Music Japan
Номер по каталогу: SICP-20340~49
Жанр: Rock, Pop Rock, Folk Rock
Продолжительность: 09:18:21
Кодек: FLAC (*.flac)
Битрейт: Lossless
Тип рипа: (image+.cue)
Наличие сканов в содержимом раздачи: да
Источник (релизер): ALLexxess
1972 - Paul Simon (SICP-20342)
Продолжительность: 00:43:13
Трек лист:

01. Mother And Child Reunion 03:09
02. Duncan 04:43
03. Everything Put Together Falls Apart 02:01
04. Run That Body Down 03:54
05. Armistice Day 03:57
06. Me And Julio Down By The Schoolyard 02:44
07. Peace Like A River 03:23
08. Papa Hobo 02:35
09. Hobo's Blues 01:20
10. Paranoia Blues 02:58
#77711. Congratulations 03:51
Bonus Tracks
12. Me And Julio Down By The Schoolyard (Demo / San Francisco 2/71) 02:29
13. Duncan (Demo / San Francisco 2/71) 02:48
14. Paranoia Blues (Unreleased Version) 03:14
Код:
Код:
Exact Audio Copy V1.0 beta 3 from 29. August 2011

EAC extraction logfile from 9. December 2011, 13:33

Paul Simon / Paul Simon

Used drive  : HL-DT-STDVDRAM GSA-H60N   Adapter: 2  ID: 0

Read mode               : Secure
Utilize accurate stream : Yes
Defeat audio cache      : Yes
Make use of C2 pointers : No

Read offset correction                      : 667
Overread into Lead-In and Lead-Out          : No
Fill up missing offset samples with silence : Yes
Delete leading and trailing silent blocks   : No
Null samples used in CRC calculations       : Yes
Used interface                              : Native Win32 interface for Win NT & 2000

Used output format : Internal WAV Routines
Sample format      : 44.100 Hz; 16 Bit; Stereo

TOC of the extracted CD

     Track |   Start  |  Length  | Start sector | End sector
    ---------------------------------------------------------
        1  |  0:00.00 |  3:09.65 |         0    |    14239
        2  |  3:09.65 |  4:43.10 |     14240    |    35474
        3  |  7:53.00 |  2:01.64 |     35475    |    44613
        4  |  9:54.64 |  3:54.46 |     44614    |    62209
        5  | 13:49.35 |  3:57.05 |     62210    |    79989
        6  | 17:46.40 |  2:44.61 |     79990    |    92350
        7  | 20:31.26 |  3:23.21 |     92351    |   107596
        8  | 23:54.47 |  2:35.39 |    107597    |   119260
        9  | 26:30.11 |  1:20.58 |    119261    |   125318
       10  | 27:50.69 |  2:58.11 |    125319    |   138679
       11  | 30:49.05 |  3:51.07 |    138680    |   156011
       12  | 34:40.12 |  2:29.41 |    156012    |   167227
       13  | 37:09.53 |  2:48.43 |    167228    |   179870
       14  | 39:58.21 |  3:14.29 |    179871    |   194449

Range status and errors

Selected range

     Filename C:\Documents and Settings\Admin\Рабочий стол\Lossless Galaxy Rip by ALLexxess\2011 Paul Simon 9 Albums Sony Music Japan Mini LP Blu-spec CD\1972 Paul Simon\Paul Simon - Paul Simon.wav

     Peak level 98.8 %
     Extraction speed 5.7 X
     Range quality 100.0 %
     Test CRC 9994C071
     Copy CRC 9994C071
     Copy OK

No errors occurred

AccurateRip summary

Track  1  accurately ripped (confidence 4)  [62FB9CE1]  (AR v2)
Track  2  accurately ripped (confidence 4)  [B4087341]  (AR v2)
Track  3  accurately ripped (confidence 4)  [535CA846]  (AR v2)
Track  4  accurately ripped (confidence 4)  [4C23FA05]  (AR v2)
Track  5  accurately ripped (confidence 4)  [04946F6A]  (AR v2)
Track  6  accurately ripped (confidence 4)  [E32849F1]  (AR v2)
Track  7  accurately ripped (confidence 4)  [577E4B14]  (AR v2)
Track  8  accurately ripped (confidence 4)  [933ADE6E]  (AR v2)
Track  9  accurately ripped (confidence 4)  [7D63D6A0]  (AR v2)
Track 10  accurately ripped (confidence 4)  [305D3897]  (AR v2)
Track 11  accurately ripped (confidence 4)  [991E05BA]  (AR v2)
Track 12  accurately ripped (confidence 4)  [FD3B76C9]  (AR v2)
Track 13  accurately ripped (confidence 4)  [6E1A93F0]  (AR v2)
Track 14  accurately ripped (confidence 4)  [1A60B300]  (AR v2)

All tracks accurately ripped

End of status report

==== Log checksum 99A6518634B4E5BB7DFE2E113C396A302E431B532EE6A9A0C6D37DA843C4AEDD ====
Код:
Код:
-----------------------

DON'T MODIFY THIS FILE

-----------------------

PERFORMER: auCDtect Task Manager, ver. 1.6.0 RC1 build 1.6.0.1
Copyright (c) 2008-2010 y-soft. All rights reserved
http:/y-soft.org

ANALYZER: auCDtect: CD records authenticity detector, version 0.8.2
Copyright (c) 2004 Oleg Berngardt. All rights reserved.
Copyright (c) 2004 Alexander Djourik. All rights reserved.

FILE: Paul Simon - Paul Simon.flac
  Size: 260288498 Hash: 3E45BA5EA408F00D132D3FC73A8DFDAE Accuracy: -m0
  Conclusion: CDDA 100%
  Signature: 93064AB55A23B40280285F3BECF327310C2C20EA
Код:
Код:

REM GENRE "Rock / Pop Rock / Folk Rock"
REM DATE 1972
REM DISCID AD0A200E
REM COMMENT "ExactAudioCopy v1.0b3"
PERFORMER "Paul Simon"
TITLE "Paul Simon"
FILE "Paul Simon - Paul Simon.flac" WAVE
  TRACK 01 AUDIO
    TITLE "Mother And Child Reunion"
    PERFORMER "Paul Simon"
    INDEX 01 00:00:00
  TRACK 02 AUDIO
    TITLE "Duncan"
    PERFORMER "Paul Simon"
    INDEX 00 03:07:31
    INDEX 01 03:09:65
  TRACK 03 AUDIO
    TITLE "Everything Put Together Falls Apart"
    PERFORMER "Paul Simon"
    INDEX 01 07:53:00
  TRACK 04 AUDIO
    TITLE "Run That Body Down"
    PERFORMER "Paul Simon"
    INDEX 01 09:54:64
  TRACK 05 AUDIO
    TITLE "Armistice Day"
    PERFORMER "Paul Simon"
    INDEX 00 13:47:02
    INDEX 01 13:49:35
  TRACK 06 AUDIO
    TITLE "Me And Julio Down By The Schoolyard"
    PERFORMER "Paul Simon"
    INDEX 00 17:44:73
    INDEX 01 17:46:40
  TRACK 07 AUDIO
    TITLE "Peace Like A River"
    PERFORMER "Paul Simon"
    INDEX 01 20:31:26
  TRACK 08 AUDIO
    TITLE "Papa Hobo"
    PERFORMER "Paul Simon"
    INDEX 01 23:54:47
  TRACK 09 AUDIO
    TITLE "Hobo's Blues"
    PERFORMER "Paul Simon"
    INDEX 01 26:30:11
  TRACK 10 AUDIO
    TITLE "Paranoia Blues"
    PERFORMER "Paul Simon"
    INDEX 01 27:50:69
  TRACK 11 AUDIO
    TITLE "Congratulations"
    PERFORMER "Paul Simon"
    INDEX 00 30:47:43
    INDEX 01 30:49:05
  TRACK 12 AUDIO
    TITLE "Me And Julio Down By The Schoolyard (Demo / San Francisco 2/71)"
    PERFORMER "Paul Simon"
    INDEX 00 34:32:37
    INDEX 01 34:40:12
  TRACK 13 AUDIO
    TITLE "Duncan (Demo / San Francisco 2/71)"
    PERFORMER "Paul Simon"
    INDEX 00 37:07:53
    INDEX 01 37:09:53
  TRACK 14 AUDIO
    TITLE "Paranoia Blues (Unreleased Version)"
    PERFORMER "Paul Simon"
    INDEX 00 39:56:26
    INDEX 01 39:58:21
#777Продолжительность: 00:50:09
Трек лист:

01. Kodachrome 03:35
02. Tenderness 02:55
03. Take Me To The Mardi Gras 03:30
04. Something So Right 04:36
05. One Man's Ceiling Is Another Man's Floor 03:48
06. American Tune 03:47
07. Was A Sunny Day 03:44
08. Learn How To Fall 02:47
09. St. Judy's Comet 03:21
10. Loves Me Like A Rock 03:40
Bonus Tracks:
11. Let Me Live In Your City (Work-In-Progress) 04:21
12. Take Me To The Mardi Gras (Acoustic Demo) 02:31
13. American Tune (Unfinished Demo) 04:03
14. Loves Me Like A Rock (Acoustic Demo) 03:24
Код:
Код:
Exact Audio Copy V1.0 beta 3 from 29. August 2011

EAC extraction logfile from 9. December 2011, 15:21

Paul Simon / There Goes Rhymin' Simon

Used drive  : HL-DT-STDVDRAM GSA-H60N   Adapter: 2  ID: 0

Read mode               : Secure
Utilize accurate stream : Yes
Defeat audio cache      : Yes
Make use of C2 pointers : No

Read offset correction                      : 667
Overread into Lead-In and Lead-Out          : No
Fill up missing offset samples with silence : Yes
Delete leading and trailing silent blocks   : No
Null samples used in CRC calculations       : Yes
Used interface                              : Native Win32 interface for Win NT & 2000

Used output format : Internal WAV Routines
Sample format      : 44.100 Hz; 16 Bit; Stereo

TOC of the extracted CD

     Track |   Start  |  Length  | Start sector | End sector
    ---------------------------------------------------------
        1  |  0:00.00 |  3:35.30 |         0    |    16154
        2  |  3:35.30 |  2:55.38 |     16155    |    29317
        3  |  6:30.68 |  3:30.63 |     29318    |    45130
        4  | 10:01.56 |  4:36.63 |     45131    |    65893
        5  | 14:38.44 |  3:48.10 |     65894    |    83003
        6  | 18:26.54 |  3:47.10 |     83004    |   100038
        7  | 22:13.64 |  3:44.23 |    100039    |   116861
        8  | 25:58.12 |  2:47.48 |    116862    |   129434
        9  | 28:45.60 |  3:21.48 |    129435    |   144557
       10  | 32:07.33 |  3:40.31 |    144558    |   161088
       11  | 35:47.64 |  4:21.73 |    161089    |   180736
       12  | 40:09.62 |  2:31.09 |    180737    |   192070
       13  | 42:40.71 |  4:03.12 |    192071    |   210307
       14  | 46:44.08 |  3:24.53 |    210308    |   225660

Range status and errors

Selected range

     Filename C:\Documents and Settings\Admin\Рабочий стол\Lossless Galaxy Rip by ALLexxess\2011 Paul Simon 9 Albums Sony Music Japan Mini LP Blu-spec CD\1973 There Goes Rhymin' Simon\Paul Simon - There Goes Rhymin' Simon.wav

     Peak level 98.8 %
     Extraction speed 5.8 X
     Range quality 100.0 %
     Test CRC F5B52156
     Copy CRC F5B52156
     Copy OK

No errors occurred

AccurateRip summary

Track  1  accurately ripped (confidence 2)  [A73F6207]  (AR v1)
Track  2  cannot be verified as accurate (confidence 7)  [243FC1C3], AccurateRip returned [3760006F]  (AR v2)
Track  3  cannot be verified as accurate (confidence 7)  [3D22BD71], AccurateRip returned [772F0CA6]  (AR v2)
Track  4  cannot be verified as accurate (confidence 7)  [C2CF36D0], AccurateRip returned [5D61BF46]  (AR v2)
Track  5  cannot be verified as accurate (confidence 7)  [A02049DC], AccurateRip returned [44F2F9D8]  (AR v2)
Track  6  cannot be verified as accurate (confidence 7)  [5FD04924], AccurateRip returned [9519E529]  (AR v2)
Track  7  cannot be verified as accurate (confidence 7)  [80360C3C], AccurateRip returned [8179AED7]  (AR v2)
Track  8  cannot be verified as accurate (confidence 7)  [3795A806], AccurateRip returned [B102B81D]  (AR v2)
Track  9  cannot be verified as accurate (confidence 7)  [5911682B], AccurateRip returned [E90E0C37]  (AR v2)
Track 10  cannot be verified as accurate (confidence 7)  [CE8EE466], AccurateRip returned [542CB1FB]  (AR v2)
Track 11  cannot be verified as accurate (confidence 7)  [E88900F6], AccurateRip returned [41F618E3]  (AR v2)
Track 12  cannot be verified as accurate (confidence 7)  [8D68F62A], AccurateRip returned [D705D249]  (AR v2)
Track 13  cannot be verified as accurate (confidence 7)  [51CEF00C], AccurateRip returned [66B66B16]  (AR v2)
Track 14  cannot be verified as accurate (confidence 7)  [E93BB2FF], AccurateRip returned [088E7786]  (AR v2)

 1 track(s) accurately ripped
13 track(s) could not be verified as accurate

Some tracks could not be verified as accurate

End of status report

==== Log checksum F1063C1F378358F27A7798B4B7E5583E90CCEA388B46CFC2F57D05A1D583D8A7 ====

Код:
Код:
-----------------------

DON'T MODIFY THIS FILE

-----------------------

PERFORMER: auCDtect Task Manager, ver. 1.6.0 RC1 build 1.6.0.1
Copyright (c) 2008-2010 y-soft. All rights reserved
http:/y-soft.org

ANALYZER: auCDtect: CD records authenticity detector, version 0.8.2
Copyright (c) 2004 Oleg Berngardt. All rights reserved.
Copyright (c) 2004 Alexander Djourik. All rights reserved.

FILE: Paul Simon - There Goes Rhymin' Simon.flac
  Size: 295217516 Hash: 3A446B242D19ABA62BB603E3F6417EC3 Accuracy: -m0
  Conclusion: CDDA 100%
  Signature: 8D579669FBC78A39E4261C585CAA18B80B939084

[hide=Содержание индексной карты (.CUE)]
Код:
Код:
REM GENRE "Rock / Pop Rock / Folk Rock"
REM DATE 1973
REM DISCID B20BC00E
REM COMMENT "ExactAudioCopy v1.0b3"
PERFORMER "Paul Simon"
TITLE "There Goes Rhymin' Simon"
FILE "Paul Simon - There Goes Rhymin' Simon.flac" WAVE
  TRACK 01 AUDIO
    TITLE "Kodachrome"
    PERFORMER "Paul Simon"
    INDEX 01 00:00:00
  TRACK 02 AUDIO
    TITLE "Tenderness"
    PERFORMER "Paul Simon"
    INDEX 01 03:35:30
  TRACK 03 AUDIO
    TITLE "Take Me To The Mardi Gras"
    PERFORMER "Paul Simon"
    INDEX 01 06:30:68
  TRACK 04 AUDIO
    TITLE "Something So Right"
    PERFORMER "Paul Simon"
    INDEX 01 10:01:56
  TRACK 05 AUDIO
    TITLE "One Man's Ceilling is Another Man's Floor"
    PERFORMER "Paul Simon"
    INDEX 01 14:38:44
  TRACK 06 AUDIO
    TITLE "American Tune"
    PERFORMER "Paul Simon"
    INDEX 00 18:25:48
    INDEX 01 18:26:54
  TRACK 07 AUDIO
    TITLE "Was A Sunny Day"
    PERFORMER "Paul Simon"
    INDEX 00 22:11:66
    INDEX 01 22:13:64
  TRACK 08 AUDIO
    TITLE "Learn How To Fall"
    PERFORMER "Paul Simon"
    INDEX 01 25:58:12
  TRACK 09 AUDIO
    TITLE "St. Judy's Comet"
    PERFORMER "Paul Simon"
    INDEX 01 28:45:60
  TRACK 10 AUDIO
    TITLE "Loves Me Like A Rock"
    PERFORMER "Paul Simon"
    INDEX 01 32:07:33
  TRACK 11 AUDIO
    TITLE "Let Me Live in Your City (Work-In-Progress)"
    PERFORMER "Paul Simon"
    INDEX 00 35:40:68
    INDEX 01 35:47:64
  TRACK 12 AUDIO
    TITLE "Take Me to the Mardi Gras (Acoustic Demo)"
    PERFORMER "Paul Simon"
    INDEX 00 40:08:35
    INDEX 01 40:09:62
  TRACK 13 AUDIO
    TITLE "American Tune (Unfinished Demo)"
    PERFORMER "Paul Simon"
    INDEX 00 42:39:13
    INDEX 01 42:40:71
  TRACK 14 AUDIO
    TITLE "Loves Me Like A Rock (Acoustic Demo)"
    PERFORMER "Paul Simon"
    INDEX 00 46:42:65
    INDEX 01 46:44:08

#777Продолжительность: 00:59:26
Трек лист:

01. Me And Julio Down By The Schoolyard 02:47
02. Homeward Bound 02:44
03. American Tune 04:01
04. El Condor Pasa (If I Could) 04:05
05. Duncan 05:07
06. The Boxer 06:07
07. Mother And Child Reunion 04:02
08. The Sound Of Silence 04:23
09. Jesus Is The Answer 03:26
10. Bridge Over Troubled Water 07:28
11. Loves Me Like A Rock 03:01
12. America 04:37
Bonus Tracks:
13. Kodachrome 02:55
14. Something So Right 04:34
Код:
Код:
Exact Audio Copy V1.0 beta 3 from 29. August 2011

EAC extraction logfile from 9. December 2011, 12:17

Paul Simon / Paul Simon In Concert: Live Rhymin'

Used drive  : HL-DT-STDVDRAM GSA-H60N   Adapter: 2  ID: 0

Read mode               : Secure
Utilize accurate stream : Yes
Defeat audio cache      : Yes
Make use of C2 pointers : No

Read offset correction                      : 667
Overread into Lead-In and Lead-Out          : No
Fill up missing offset samples with silence : Yes
Delete leading and trailing silent blocks   : No
Null samples used in CRC calculations       : Yes
Used interface                              : Native Win32 interface for Win NT & 2000

Used output format : Internal WAV Routines
Sample format      : 44.100 Hz; 16 Bit; Stereo

TOC of the extracted CD

     Track |   Start  |  Length  | Start sector | End sector
    ---------------------------------------------------------
        1  |  0:00.00 |  2:47.35 |         0    |    12559
        2  |  2:47.35 |  2:44.73 |     12560    |    24932
        3  |  5:32.33 |  4:01.45 |     24933    |    43052
        4  |  9:34.03 |  4:05.55 |     43053    |    61482
        5  | 13:39.58 |  5:07.62 |     61483    |    84569
        6  | 18:47.45 |  6:07.47 |     84570    |   112141
        7  | 24:55.17 |  4:02.47 |    112142    |   130338
        8  | 28:57.64 |  4:23.72 |    130339    |   150135
        9  | 33:21.61 |  3:26.65 |    150136    |   165650
       10  | 36:48.51 |  7:28.04 |    165651    |   199254
       11  | 44:16.55 |  3:01.54 |    199255    |   212883
       12  | 47:18.34 |  4:37.51 |    212884    |   233709
       13  | 51:56.10 |  2:55.31 |    233710    |   246865
       14  | 54:51.41 |  4:34.30 |    246866    |   267445

Range status and errors

Selected range

     Filename C:\Documents and Settings\Admin\Рабочий стол\Lossless Galaxy Rip by ALLexxess\2011 Paul Simon 9 Albums Sony Music Japan Mini LP Blu-spec CD\1974 Live Rhymin'\Paul Simon In Concert Live Rhymin'.wav

     Peak level 98.8 %
     Extraction speed 6.2 X
     Range quality 100.0 %
     Test CRC D36D9993
     Copy CRC D36D9993
     Copy OK

No errors occurred

AccurateRip summary

Track  1  not present in database
Track  2  not present in database
Track  3  not present in database
Track  4  not present in database
Track  5  not present in database
Track  6  not present in database
Track  7  not present in database
Track  8  not present in database
Track  9  not present in database
Track 10  not present in database
Track 11  not present in database
Track 12  not present in database
Track 13  not present in database
Track 14  not present in database

None of the tracks are present in the AccurateRip database

End of status report

==== Log checksum 66DA6971E5B573E8DB78E989BF39B3A7428B116CF231FF897B2A13BAF9C31E53 ====

Код:
Код:
-----------------------

DON'T MODIFY THIS FILE

-----------------------

PERFORMER: auCDtect Task Manager, ver. 1.6.0 RC1 build 1.6.0.1
Copyright (c) 2008-2010 y-soft. All rights reserved
http:/y-soft.org

ANALYZER: auCDtect: CD records authenticity detector, version 0.8.2
Copyright (c) 2004 Oleg Berngardt. All rights reserved.
Copyright (c) 2004 Alexander Djourik. All rights reserved.

FILE: Paul Simon In Concert Live Rhymin'.flac
  Size: 356760519 Hash: 3AEE12581F962A89DDE8CE5B31200AE2 Accuracy: -m0
  Conclusion: CDDA 100%
  Signature: 0C9FA412A9392A7E65DF8016FFB0F9F7517905D2

Код:
Код:

REM GENRE "Rock / Pop Rock / Folk Rock"
REM DATE 1974
REM DISCID BA0DED0E
REM COMMENT "ExactAudioCopy v1.0b3"
PERFORMER "Paul Simon"
TITLE "Paul Simon In Concert: Live Rhymin'"
FILE "Paul Simon In Concert Live Rhymin'.flac" WAVE
  TRACK 01 AUDIO
    TITLE "Me And Julio Down By The Schoolyard"
    PERFORMER "Paul Simon"
    INDEX 01 00:00:00
  TRACK 02 AUDIO
    TITLE "Homeward Bound"
    PERFORMER "Paul Simon"
    INDEX 01 02:47:35
  TRACK 03 AUDIO
    TITLE "American Tune"
    PERFORMER "Paul Simon"
    INDEX 01 05:32:33
  TRACK 04 AUDIO
    TITLE "El Condor Pasa"
    PERFORMER "Paul Simon"
    INDEX 01 09:34:03
  TRACK 05 AUDIO
    TITLE "Duncan"
    PERFORMER "Paul Simon"
    INDEX 01 13:39:58
  TRACK 06 AUDIO
    TITLE "The Boxer"
    PERFORMER "Paul Simon"
    INDEX 01 18:47:45
  TRACK 07 AUDIO
    TITLE "Mother And Child Reunion"
    PERFORMER "Paul Simon"
    INDEX 01 24:55:17
  TRACK 08 AUDIO
    TITLE "The Sound Of Silence"
    PERFORMER "Paul Simon"
    INDEX 01 28:57:64
  TRACK 09 AUDIO
    TITLE "Jesus Is The Answer"
    PERFORMER "Paul Simon"
    INDEX 01 33:21:61
  TRACK 10 AUDIO
    TITLE "Bridge Over Troubled Water"
    PERFORMER "Paul Simon"
    INDEX 01 36:48:51
  TRACK 11 AUDIO
    TITLE "Loves Me Like A Rock"
    PERFORMER "Paul Simon"
    INDEX 01 44:16:55
  TRACK 12 AUDIO
    TITLE "America"
    PERFORMER "Paul Simon"
    INDEX 01 47:18:34
  TRACK 13 AUDIO
    TITLE "Kodachrome"
    PERFORMER "Paul Simon"
    INDEX 00 51:52:10
    INDEX 01 51:56:10
  TRACK 14 AUDIO
    TITLE "Something So Right"
    PERFORMER "Paul Simon"
    INDEX 01 54:51:41

#777Продолжительность: 00:45:33
Трек лист:

01. Still Crazy After All These Years 03:26
02. My Little Town 03:51
03. I Do It For Your Love 03:35
04. 50 Ways To Leave Your Lover 03:37
05. Night Game 02:58
06. Gone At Last 03:40
07. Some Folks' Lives Roll Easy 03:14
08. Have A Good Time 03:26
09. You're Kind 03:20
10. Silent Eyes 04:12
Bonus Tracks:
11. Slip Slidin' Away (Demo) 05:30
12. Gone At Last (Original Demo w/The Jessy Dixon Singers) 04:38
Код:
Код:

Exact Audio Copy V1.0 beta 3 from 29. August 2011

EAC extraction logfile from 7. December 2011, 17:52

Paul Simon / Still Crazy After All These Years

Used drive  : HL-DT-STDVDRAM GSA-H60N   Adapter: 2  ID: 0

Read mode               : Secure
Utilize accurate stream : Yes
Defeat audio cache      : Yes
Make use of C2 pointers : No

Read offset correction                      : 667
Overread into Lead-In and Lead-Out          : No
Fill up missing offset samples with silence : Yes
Delete leading and trailing silent blocks   : No
Null samples used in CRC calculations       : Yes
Used interface                              : Native Win32 interface for Win NT & 2000

Used output format : Internal WAV Routines
Sample format      : 44.100 Hz; 16 Bit; Stereo

TOC of the extracted CD

     Track |   Start  |  Length  | Start sector | End sector
    ---------------------------------------------------------
        1  |  0:00.00 |  3:26.40 |         0    |    15489
        2  |  3:26.40 |  3:51.70 |     15490    |    32884
        3  |  7:18.35 |  3:35.15 |     32885    |    49024
        4  | 10:53.50 |  3:37.26 |     49025    |    65325
        5  | 14:31.01 |  2:58.54 |     65326    |    78729
        6  | 17:29.55 |  3:40.71 |     78730    |    95300
        7  | 21:10.51 |  3:14.30 |     95301    |   109880
        8  | 24:25.06 |  3:26.35 |    109881    |   125365
        9  | 27:51.41 |  3:20.11 |    125366    |   140376
       10  | 31:11.52 |  4:12.23 |    140377    |   159299
       11  | 35:24.00 |  5:30.20 |    159300    |   184069
       12  | 40:54.20 |  4:38.49 |    184070    |   204968

Range status and errors

Selected range

     Filename C:\Documents and Settings\Admin\Рабочий стол\Lossless Galaxy Rip by ALLexxess\2011 Paul Simon 9 Albums Sony Music Japan Mini LP Blu-spec CD\1975 Still Crazy After All These Years\Paul Simon - Still Crazy After All These Years.wav

     Peak level 98.8 %
     Extraction speed 5.7 X
     Range quality 100.0 %
     Test CRC 7DC8A991
     Copy CRC 7DC8A991
     Copy OK

No errors occurred

AccurateRip summary

Track  1  cannot be verified as accurate (confidence 7)  [E3CEE472], AccurateRip returned [D3DD4BC7]  (AR v2)
Track  2  cannot be verified as accurate (confidence 7)  [C007C1D6], AccurateRip returned [775C82D1]  (AR v2)
Track  3  cannot be verified as accurate (confidence 7)  [5DDAF16C], AccurateRip returned [E0DB3EAF]  (AR v2)
Track  4  cannot be verified as accurate (confidence 7)  [93BADCAB], AccurateRip returned [F6F51171]  (AR v2)
Track  5  cannot be verified as accurate (confidence 7)  [F14081C8], AccurateRip returned [73CDB0DF]  (AR v2)
Track  6  cannot be verified as accurate (confidence 7)  [FC07F8C8], AccurateRip returned [33B57FBD]  (AR v2)
Track  7  cannot be verified as accurate (confidence 7)  [D9F25952], AccurateRip returned [6B16DF10]  (AR v2)
Track  8  cannot be verified as accurate (confidence 7)  [82652D2D], AccurateRip returned [A8B0BBE5]  (AR v2)
Track  9  cannot be verified as accurate (confidence 7)  [DB0EDA49], AccurateRip returned [00EE8E7A]  (AR v2)
Track 10  cannot be verified as accurate (confidence 7)  [E6C3FC95], AccurateRip returned [89D511B6]  (AR v2)
Track 11  cannot be verified as accurate (confidence 7)  [8335F3B0], AccurateRip returned [E638180C]  (AR v2)
Track 12  cannot be verified as accurate (confidence 7)  [CDEFCD9D], AccurateRip returned [BAD8479B]  (AR v2)

No tracks could be verified as accurate
You may have a different pressing from the one(s) in the database

End of status report

==== Log checksum 109FEE0FDC430FDA73728541E6E84659026DE99F7A48C891739A3FA85DF80264 ====

Код:
Код:
-----------------------

DON'T MODIFY THIS FILE

-----------------------

PERFORMER: auCDtect Task Manager, ver. 1.6.0 RC1 build 1.6.0.1
Copyright (c) 2008-2010 y-soft. All rights reserved
http:/y-soft.org

ANALYZER: auCDtect: CD records authenticity detector, version 0.8.2
Copyright (c) 2004 Oleg Berngardt. All rights reserved.
Copyright (c) 2004 Alexander Djourik. All rights reserved.

FILE: Paul Simon - Still Crazy After All These Years.flac
  Size: 249140959 Hash: 2F6FE208544A023BCAA70613C16A8B69 Accuracy: -m0
  Conclusion: CDDA 100%
  Signature: BCDDCDA46B1963787ECE571D8F6C14220B3E98DA

Код:
Код:

REM GENRE "Rock / Pop Rock / Folk Rock"
REM DATE 1975
REM DISCID 9B0AAC0C
REM COMMENT "ExactAudioCopy v1.0b3"
PERFORMER "Paul Simon"
TITLE "Still Crazy After All These Years"
FILE "Paul Simon - Still Crazy After All These Years.flac" WAVE
  TRACK 01 AUDIO
    TITLE "Still Crazy After All These Years"
    PERFORMER "Paul Simon"
    INDEX 01 00:00:00
  TRACK 02 AUDIO
    TITLE "My Little Town"
    PERFORMER "Paul Simon"
    INDEX 01 03:26:40
  TRACK 03 AUDIO
    TITLE "I Do It For Your Love"
    PERFORMER "Paul Simon"
    INDEX 01 07:18:35
  TRACK 04 AUDIO
    TITLE "50 Ways To Leave Your Lover"
    PERFORMER "Paul Simon"
    INDEX 01 10:53:50
  TRACK 05 AUDIO
    TITLE "Night Game"
    PERFORMER "Paul Simon"
    INDEX 01 14:31:01
  TRACK 06 AUDIO
    TITLE "Gone At Last"
    PERFORMER "Paul Simon"
    INDEX 00 17:28:51
    INDEX 01 17:29:55
  TRACK 07 AUDIO
    TITLE "Some Folks' Lives Roll Easy"
    PERFORMER "Paul Simon"
    INDEX 01 21:10:51
  TRACK 08 AUDIO
    TITLE "Have A Good Time"
    PERFORMER "Paul Simon"
    INDEX 01 24:25:06
  TRACK 09 AUDIO
    TITLE "You're Kind"
    PERFORMER "Paul Simon"
    INDEX 01 27:51:41
  TRACK 10 AUDIO
    TITLE "Silent Eyes"
    PERFORMER "Paul Simon"
    INDEX 01 31:11:52
  TRACK 11 AUDIO
    TITLE "Slip Slidin' Away (Demo)"
    PERFORMER "Paul Simon"
    INDEX 00 35:17:01
    INDEX 01 35:24:00
  TRACK 12 AUDIO
    TITLE "Gone At Last (Original Demo w/The Jessy Dixon Singers)"
    PERFORMER "Paul Simon"
    INDEX 00 40:53:11
    INDEX 01 40:54:20

#777Продолжительность: 00:50:33
Трек лист:

01. Late In The Evenin 04:02
02. That's The Way God Made The Movies 03:37
03. One-Trick Pony 03:53
04. How The Heart Approaches What It Yearns 02:49
05. Oh, Marion 04:00
06. Ace In The Hole 05:43
07. Nobody 03:32
08. Jonah 03:30
09. God Bless The Absentee 03:17
10. Long, Long Day 03:57
Bonus Tracks:
11. Soft Parachutes (Unissued Soundtrack Recording) 01:53
12. All Because Of You (Outtake) 04:06
13. Spiral Highway (Unissued Soundtrack Recording) 02:56
14. Stranded In A Limosine 03:10
Код:
Код:

Exact Audio Copy V1.0 beta 3 from 29. August 2011

EAC extraction logfile from 9. December 2011, 14:11

Paul Simon / One-Trick Pony

Used drive  : HL-DT-STDVDRAM GSA-H60N   Adapter: 2  ID: 0

Read mode               : Secure
Utilize accurate stream : Yes
Defeat audio cache      : Yes
Make use of C2 pointers : No

Read offset correction                      : 667
Overread into Lead-In and Lead-Out          : No
Fill up missing offset samples with silence : Yes
Delete leading and trailing silent blocks   : No
Null samples used in CRC calculations       : Yes
Used interface                              : Native Win32 interface for Win NT & 2000

Used output format : Internal WAV Routines
Sample format      : 44.100 Hz; 16 Bit; Stereo

TOC of the extracted CD

     Track |   Start  |  Length  | Start sector | End sector
    ---------------------------------------------------------
        1  |  0:00.00 |  4:02.53 |         0    |    18202
        2  |  4:02.53 |  3:37.47 |     18203    |    34524
        3  |  7:40.25 |  3:53.51 |     34525    |    52050
        4  | 11:34.01 |  2:49.27 |     52051    |    64752
        5  | 14:23.28 |  4:00.54 |     64753    |    82806
        6  | 18:24.07 |  5:43.00 |     82807    |   108531
        7  | 24:07.07 |  3:32.55 |    108532    |   124486
        8  | 27:39.62 |  3:30.49 |    124487    |   140285
        9  | 31:10.36 |  3:17.40 |    140286    |   155100
       10  | 34:28.01 |  3:57.19 |    155101    |   172894
       11  | 38:25.20 |  1:53.39 |    172895    |   181408
       12  | 40:18.59 |  4:06.74 |    181409    |   199932
       13  | 44:25.58 |  2:56.44 |    199933    |   213176
       14  | 47:22.27 |  3:10.65 |    213177    |   227491

Range status and errors

Selected range

     Filename C:\Documents and Settings\Admin\Рабочий стол\Lossless Galaxy Rip by ALLexxess\2011 Paul Simon 9 Albums Sony Music Japan Mini LP Blu-spec CD\1980 One-Trick Pony\Paul Simon - One-Trick Pony.wav

     Peak level 98.8 %
     Extraction speed 5.9 X
     Range quality 100.0 %
     Test CRC DDD73CAF
     Copy CRC DDD73CAF
     Copy OK

No errors occurred

AccurateRip summary

Track  1  not present in database
Track  2  not present in database
Track  3  not present in database
Track  4  not present in database
Track  5  not present in database
Track  6  not present in database
Track  7  not present in database
Track  8  not present in database
Track  9  not present in database
Track 10  not present in database
Track 11  not present in database
Track 12  not present in database
Track 13  not present in database
Track 14  not present in database

None of the tracks are present in the AccurateRip database

End of status report

==== Log checksum 52AC58DD3BD08B78D5720EA87E681AC8121F5A2E65F73D521A1075F7753C7524 ====

Код:
Код:

-----------------------

DON'T MODIFY THIS FILE

-----------------------

PERFORMER: auCDtect Task Manager, ver. 1.6.0 RC1 build 1.6.0.1
Copyright (c) 2008-2010 y-soft. All rights reserved
http:/y-soft.org

ANALYZER: auCDtect: CD records authenticity detector, version 0.8.2
Copyright (c) 2004 Oleg Berngardt. All rights reserved.
Copyright (c) 2004 Alexander Djourik. All rights reserved.

FILE: Paul Simon - One-Trick Pony.flac
  Size: 294349911 Hash: D4BF8F1B481E8ACD4408C6111CB6F160 Accuracy: -m0
  Conclusion: CDDA 100%
  Signature: AF950523A856F0DD20E3B8B59410CDFA9D889703

Код:
Код:

REM GENRE "Rock / Pop Rock / Folk Rock"
REM DATE 1980
REM DISCID BE0BD90E
REM COMMENT "ExactAudioCopy v1.0b3"
PERFORMER "Paul Simon"
TITLE "One-Trick Pony"
FILE "Paul Simon - One-Trick Pony.flac" WAVE
  TRACK 01 AUDIO
    TITLE "Late In The Evening"
    PERFORMER "Paul Simon"
    INDEX 01 00:00:00
  TRACK 02 AUDIO
    TITLE "That's Why God Made Movies"
    PERFORMER "Paul Simon"
    INDEX 01 04:02:53
  TRACK 03 AUDIO
    TITLE "One-Trick Pony"
    PERFORMER "Paul Simon"
    INDEX 01 07:40:25
  TRACK 04 AUDIO
    TITLE "How The Heart Approaches What It Yearns"
    PERFORMER "Paul Simon"
    INDEX 01 11:34:01
  TRACK 05 AUDIO
    TITLE "Oh, Marion"
    PERFORMER "Paul Simon"
    INDEX 01 14:23:28
  TRACK 06 AUDIO
    TITLE "Ace In The Hole"
    PERFORMER "Paul Simon"
    INDEX 01 18:24:07
  TRACK 07 AUDIO
    TITLE "Nobody"
    PERFORMER "Paul Simon"
    INDEX 01 24:07:07
  TRACK 08 AUDIO
    TITLE "Jonah"
    PERFORMER "Paul Simon"
    INDEX 01 27:39:62
  TRACK 09 AUDIO
    TITLE "God Bless The Absentee"
    PERFORMER "Paul Simon"
    INDEX 01 31:10:36
  TRACK 10 AUDIO
    TITLE "Long, Long Day"
    PERFORMER "Paul Simon"
    INDEX 01 34:28:01
  TRACK 11 AUDIO
    TITLE "Soft Parachutes (Unissued Soundtrack Recording)"
    PERFORMER "Paul Simon"
    INDEX 00 38:18:10
    INDEX 01 38:25:20
  TRACK 12 AUDIO
    TITLE "All Because Of You (Outtake)"
    PERFORMER "Paul Simon"
    INDEX 00 40:16:61
    INDEX 01 40:18:59
  TRACK 13 AUDIO
    TITLE "Spiral Highway (Unissued Soundtrack Recording)"
    PERFORMER "Paul Simon"
    INDEX 00 44:24:37
    INDEX 01 44:25:58
  TRACK 14 AUDIO
    TITLE "Stranded In A Limousine"
    PERFORMER "Paul Simon"
    INDEX 00 47:21:18
    INDEX 01 47:22:27

#777Продолжительность: 00:54:29
Трек лист:

01. Allergies 04:39
02. Hearts And Bones 05:39
03. When Numbers Get Serious 03:26
04. Think Too Much (b) 02:45
05. Song About The Moon 04:11
06. Think Too Much (a) 03:05
07. Train In The Distance 05:12
08. Rene And Georgette Magritte With Their Dog After The War 03:45
09. Cars Are Cars 03:15
10. The Late Great Johnny Ace 04:53
Bonus Tracks
11. Shelter Of Your Arms (Unreleased Work-In-Progress) 03:11
12. Train In The Distance (Original Acoustic Demo) 03:13
13. Rene And Georgette Magritte With Their Dog After The War (Original Acoustic Demo) 03:47
14. The Late Great Johnny Ace (Original Acoustic Demo) 03:22
Код:
Код:

Exact Audio Copy V1.0 beta 3 from 29. August 2011

EAC extraction logfile from 9. December 2011, 13:05

Paul Simon / Hearts And Bones

Used drive  : HL-DT-STDVDRAM GSA-H60N   Adapter: 2  ID: 0

Read mode               : Secure
Utilize accurate stream : Yes
Defeat audio cache      : Yes
Make use of C2 pointers : No

Read offset correction                      : 667
Overread into Lead-In and Lead-Out          : No
Fill up missing offset samples with silence : Yes
Delete leading and trailing silent blocks   : No
Null samples used in CRC calculations       : Yes
Used interface                              : Native Win32 interface for Win NT & 2000

Used output format : Internal WAV Routines
Sample format      : 44.100 Hz; 16 Bit; Stereo

TOC of the extracted CD

     Track |   Start  |  Length  | Start sector | End sector
    ---------------------------------------------------------
        1  |  0:00.00 |  4:39.06 |         0    |    20930
        2  |  4:39.06 |  5:39.22 |     20931    |    46377
        3  | 10:18.28 |  3:26.04 |     46378    |    61831
        4  | 13:44.32 |  2:45.16 |     61832    |    74222
        5  | 16:29.48 |  4:11.31 |     74223    |    93078
        6  | 20:41.04 |  3:05.23 |     93079    |   106976
        7  | 23:46.27 |  5:12.37 |    106977    |   130413
        8  | 28:58.64 |  3:45.57 |    130414    |   147345
        9  | 32:44.46 |  3:15.15 |    147346    |   161985
       10  | 35:59.61 |  4:53.25 |    161986    |   183985
       11  | 40:53.11 |  3:11.73 |    183986    |   198383
       12  | 44:05.09 |  3:13.57 |    198384    |   212915
       13  | 47:18.66 |  3:47.20 |    212916    |   229960
       14  | 51:06.11 |  3:22.22 |    229961    |   245132

Range status and errors

Selected range

     Filename C:\Documents and Settings\Admin\Рабочий стол\Lossless Galaxy Rip by ALLexxess\2011 Paul Simon 9 Albums Sony Music Japan Mini LP Blu-spec CD\1983 Hearts And Bones\Paul Simon - Hearts And Bones.wav

     Peak level 98.8 %
     Extraction speed 6.1 X
     Range quality 100.0 %
     Test CRC 49F8A99D
     Copy CRC 49F8A99D
     Copy OK

No errors occurred

AccurateRip summary

Track  1  cannot be verified as accurate (confidence 3)  [801A0704], AccurateRip returned [006D11B4]  (AR v2)
Track  2  cannot be verified as accurate (confidence 3)  [1539BA99], AccurateRip returned [C0B8A1DB]  (AR v2)
Track  3  cannot be verified as accurate (confidence 3)  [D282883F], AccurateRip returned [DD2A36AE]  (AR v2)
Track  4  cannot be verified as accurate (confidence 3)  [4A594035], AccurateRip returned [0C07DE5E]  (AR v2)
Track  5  cannot be verified as accurate (confidence 3)  [BA6AE372], AccurateRip returned [6C04E4B2]  (AR v2)
Track  6  cannot be verified as accurate (confidence 3)  [F969AC3B], AccurateRip returned [6FD36FAA]  (AR v2)
Track  7  cannot be verified as accurate (confidence 3)  [370920EE], AccurateRip returned [314DD207]  (AR v2)
Track  8  cannot be verified as accurate (confidence 3)  [DCA407A8], AccurateRip returned [A2768170]  (AR v2)
Track  9  cannot be verified as accurate (confidence 3)  [8BF81DC3], AccurateRip returned [A5F58000]  (AR v2)
Track 10  cannot be verified as accurate (confidence 3)  [6756356F], AccurateRip returned [F827363A]  (AR v2)
Track 11  cannot be verified as accurate (confidence 3)  [74C3187A], AccurateRip returned [D9089824]  (AR v2)
Track 12  cannot be verified as accurate (confidence 3)  [3E91C626], AccurateRip returned [51677017]  (AR v2)
Track 13  cannot be verified as accurate (confidence 3)  [97B637DF], AccurateRip returned [692E43D2]  (AR v2)
Track 14  cannot be verified as accurate (confidence 3)  [EEB59853], AccurateRip returned [BCF594D6]  (AR v2)

No tracks could be verified as accurate
You may have a different pressing from the one(s) in the database

End of status report

==== Log checksum B8FA8899A01DAEF20EE0E20BBF3B3FA2D1BC918EAB2A0F412FD9EB53B9A384C4 ====

Код:
Код:

-----------------------

DON'T MODIFY THIS FILE

-----------------------

PERFORMER: auCDtect Task Manager, ver. 1.6.0 RC1 build 1.6.0.1
Copyright (c) 2008-2010 y-soft. All rights reserved
http:/y-soft.org

ANALYZER: auCDtect: CD records authenticity detector, version 0.8.2
Copyright (c) 2004 Oleg Berngardt. All rights reserved.
Copyright (c) 2004 Alexander Djourik. All rights reserved.

FILE: Paul Simon - Hearts And Bones.flac
  Size: 296065155 Hash: A12D4CCC15CB8502634FF23F0D80C348 Accuracy: -m0
  Conclusion: CDDA 99%
  Signature: 159A27D579E59DBE852909C1477108AB27396188

Код:
Код:

REM GENRE "Rock / Pop Rock / Folk Rock"
REM DATE 1983
REM DISCID BF0CC40E
REM COMMENT "ExactAudioCopy v1.0b3"
PERFORMER "Paul Simon"
TITLE "Hearts And Bones"
FILE "Paul Simon - Hearts And Bones.flac" WAVE
  TRACK 01 AUDIO
    TITLE "Allergies"
    PERFORMER "Paul Simon"
    INDEX 01 00:00:00
  TRACK 02 AUDIO
    TITLE "Hearts And Bones"
    PERFORMER "Paul Simon"
    INDEX 01 04:39:06
  TRACK 03 AUDIO
    TITLE "When Numbers Get Serious"
    PERFORMER "Paul Simon"
    INDEX 01 10:18:28
  TRACK 04 AUDIO
    TITLE "Think Too Much (b)"
    PERFORMER "Paul Simon"
    INDEX 01 13:44:32
  TRACK 05 AUDIO
    TITLE "Song About The Moon"
    PERFORMER "Paul Simon"
    INDEX 01 16:29:48
  TRACK 06 AUDIO
    TITLE "Think Too Much (a)"
    PERFORMER "Paul Simon"
    INDEX 01 20:41:04
  TRACK 07 AUDIO
    TITLE "Train In The Distance"
    PERFORMER "Paul Simon"
    INDEX 01 23:46:27
  TRACK 08 AUDIO
    TITLE "Rene And Georgette Magritte With Their Dog After The War"
    PERFORMER "Paul Simon"
    INDEX 01 28:58:64
  TRACK 09 AUDIO
    TITLE "Cars Are Cars"
    PERFORMER "Paul Simon"
    INDEX 00 32:42:42
    INDEX 01 32:44:46
  TRACK 10 AUDIO
    TITLE "The Late Great Johnny Ace"
    PERFORMER "Paul Simon"
    INDEX 01 35:59:61
  TRACK 11 AUDIO
    TITLE "Shelter Of Your Arms (Unreleased Work-In-Progress)"
    PERFORMER "Paul Simon"
    INDEX 00 40:47:02
    INDEX 01 40:53:11
  TRACK 12 AUDIO
    TITLE "Train In The Distance (Original Acoustic Demo)"
    PERFORMER "Paul Simon"
    INDEX 00 44:02:49
    INDEX 01 44:05:09
  TRACK 13 AUDIO
    TITLE "Rene And Georgette Magritte With Their Dog After The War (Original Acoustic D..."
    PERFORMER "Paul Simon"
    INDEX 00 47:16:41
    INDEX 01 47:18:66
  TRACK 14 AUDIO
    TITLE "The Late Great Johnny Ace (Original Acoustic Demo)"
    PERFORMER "Paul Simon"
    INDEX 00 51:04:26
    INDEX 01 51:06:11

#777Продолжительность: 00:53:57
Трек лист:

01. The Boy In The Bubble 03:59
02. Graceland 04:51
03. I Know What I Know 03:13
04. Gumboots 02:44
05. Diamonds On The Soles Of Her Shoes 05:51
06. You Can Call Me Al 04:40
07. Under African Skies 03:37
08. Homeless 03:48
09. Crazy Love Vol II 04:19
10. That Was Your Mother 02:52
11. All Around The World Or The Myth Of Fingerprints 03:27
Bonus Tracks (All Previously Unissued):
12. Homeless (Demo) 02:30
13. Diamonds On The Soles Of Her Shoes (Unreleased Version) 04:41
14. All Around The World Or The Myth Of Fingerprints (Early Version) 03:18
Код:
Код:

Exact Audio Copy V1.0 beta 3 from 29. August 2011

EAC extraction logfile from 7. December 2011, 21:19

Paul Simon / Graceland

Used drive  : HL-DT-STDVDRAM GSA-H60N   Adapter: 2  ID: 0

Read mode               : Secure
Utilize accurate stream : Yes
Defeat audio cache      : Yes
Make use of C2 pointers : No

Read offset correction                      : 667
Overread into Lead-In and Lead-Out          : No
Fill up missing offset samples with silence : Yes
Delete leading and trailing silent blocks   : No
Null samples used in CRC calculations       : Yes
Used interface                              : Native Win32 interface for Win NT & 2000

Used output format : Internal WAV Routines
Sample format      : 44.100 Hz; 16 Bit; Stereo

TOC of the extracted CD

     Track |   Start  |  Length  | Start sector | End sector
    ---------------------------------------------------------
        1  |  0:00.00 |  3:59.60 |         0    |    17984
        2  |  3:59.60 |  4:51.15 |     17985    |    39824
        3  |  8:51.00 |  3:13.28 |     39825    |    54327
        4  | 12:04.28 |  2:44.62 |     54328    |    66689
        5  | 14:49.15 |  5:51.26 |     66690    |    93040
        6  | 20:40.41 |  4:40.44 |     93041    |   114084
        7  | 25:21.10 |  3:37.12 |    114085    |   130371
        8  | 28:58.22 |  3:48.31 |    130372    |   147502
        9  | 32:46.53 |  4:19.27 |    147503    |   166954
       10  | 37:06.05 |  2:52.61 |    166955    |   179915
       11  | 39:58.66 |  3:27.27 |    179916    |   195467
       12  | 43:26.18 |  2:30.34 |    195468    |   206751
       13  | 45:56.52 |  4:41.28 |    206752    |   227854
       14  | 50:38.05 |  3:18.38 |    227855    |   242742

Range status and errors

Selected range

     Filename C:\Documents and Settings\Admin\Рабочий стол\Lossless Galaxy Rip by ALLexxess\2011 Paul Simon 9 Albums Sony Music Japan Mini LP Blu-spec CD\1986 Graceland\Paul Simon - Graceland.wav

     Peak level 100.0 %
     Extraction speed 6.0 X
     Range quality 100.0 %
     Test CRC DC434C45
     Copy CRC DC434C45
     Copy OK

No errors occurred

AccurateRip summary

Track  1  accurately ripped (confidence 2)  [C778EF10]  (AR v1)
Track  2  accurately ripped (confidence 2)  [BA35FBE9]  (AR v1)
Track  3  accurately ripped (confidence 2)  [DDFD7949]  (AR v1)
Track  4  accurately ripped (confidence 2)  [665D2F07]  (AR v1)
Track  5  accurately ripped (confidence 2)  [1FFD896B]  (AR v1)
Track  6  accurately ripped (confidence 2)  [9621F5ED]  (AR v1)
Track  7  accurately ripped (confidence 2)  [9124DEDF]  (AR v1)
Track  8  accurately ripped (confidence 2)  [ED5239F0]  (AR v1)
Track  9  accurately ripped (confidence 2)  [22560A38]  (AR v1)
Track 10  accurately ripped (confidence 2)  [F5B1362F]  (AR v1)
Track 11  accurately ripped (confidence 2)  [6001E6B6]  (AR v1)
Track 12  accurately ripped (confidence 2)  [BCFB05C1]  (AR v1)
Track 13  accurately ripped (confidence 2)  [FB543449]  (AR v1)
Track 14  accurately ripped (confidence 2)  [EA2C7658]  (AR v1)

All tracks accurately ripped

End of status report

==== Log checksum DC8B1188E5D51C97176D5329ACC699B6362973F12457A564095529674230FBBD ====

Код:
Код:

-----------------------

DON'T MODIFY THIS FILE

-----------------------

PERFORMER: auCDtect Task Manager, ver. 1.6.0 RC1 build 1.6.0.1
Copyright (c) 2008-2010 y-soft. All rights reserved
http:/y-soft.org

ANALYZER: auCDtect: CD records authenticity detector, version 0.8.2
Copyright (c) 2004 Oleg Berngardt. All rights reserved.
Copyright (c) 2004 Alexander Djourik. All rights reserved.

FILE: Paul Simon - Graceland.flac
  Size: 347234452 Hash: D6B5AA7171464499CEC63EE322DD8CE2 Accuracy: -m0
  Conclusion: CDDA 100%
  Signature: E11C4870DDC56346DCBFE4F32E052EDECDB1D2F1

Код:
Код:
REM GENRE "Rock / Pop Rock / Folk Rock"
REM DATE 1986
REM DISCID AE0CA40E
REM COMMENT "ExactAudioCopy v1.0b3"
PERFORMER "Paul Simon"
TITLE "Graceland"
FILE "Paul Simon - Graceland.flac" WAVE
  TRACK 01 AUDIO
    TITLE "The Boy In The Bubble"
    PERFORMER "Paul Simon"
    INDEX 01 00:00:00
  TRACK 02 AUDIO
    TITLE "Graceland"
    PERFORMER "Paul Simon"
    INDEX 01 03:59:60
  TRACK 03 AUDIO
    TITLE "I Know What I Know"
    PERFORMER "Paul Simon"
    INDEX 01 08:51:00
  TRACK 04 AUDIO
    TITLE "Gumboots"
    PERFORMER "Paul Simon"
    INDEX 01 12:04:28
  TRACK 05 AUDIO
    TITLE "Diamonds On The Soles Of Her Shoes"
    PERFORMER "Paul Simon"
    INDEX 01 14:49:15
  TRACK 06 AUDIO
    TITLE "You Can Call Me Al"
    PERFORMER "Paul Simon"
    INDEX 00 20:38:42
    INDEX 01 20:40:41
  TRACK 07 AUDIO
    TITLE "Under African Skies"
    PERFORMER "Paul Simon"
    INDEX 00 25:20:42
    INDEX 01 25:21:10
  TRACK 08 AUDIO
    TITLE "Homeless"
    PERFORMER "Paul Simon"
    INDEX 01 28:58:22
  TRACK 09 AUDIO
    TITLE "Crazy Love Vol. II"
    PERFORMER "Paul Simon"
    INDEX 01 32:46:53
  TRACK 10 AUDIO
    TITLE "That Was Your Mother"
    PERFORMER "Paul Simon"
    INDEX 01 37:06:05
  TRACK 11 AUDIO
    TITLE "All Around The World Or The Myth Of Fingerprints"
    PERFORMER "Paul Simon"
    INDEX 01 39:58:66
  TRACK 12 AUDIO
    TITLE "Homeless (Demo)"
    PERFORMER "Paul Simon"
    INDEX 00 43:15:19
    INDEX 01 43:26:18
  TRACK 13 AUDIO
    TITLE "Diamonds On The Soles Of Her Shoes (Unreleased Version)"
    PERFORMER "Paul Simon"
    INDEX 00 45:54:60
    INDEX 01 45:56:52
  TRACK 14 AUDIO
    TITLE "All Around The World Or The Myth Of Fingerprints (Early Version)"
    PERFORMER "Paul Simon"
    INDEX 01 50:38:05

#777Продолжительность: 01:01:58
Трек лист:

01. The Obvious Child 04:10
02. Can't Run But 03:36
03. The Coast 05:04
04. Proof 04:39
05. Further To Fly 05:36
06. She Moves On 05:03
07. Born At The Right Time 03:48
08. The Cool, Cool River 04:33
09. Spirit Voices 03:56
10. The Rhythm Of The Saints 04:20
Bonus Tracks:
11. Born At The Right Time (Original Acoustic Demo) 03:50
12. Thelma (Outtake) 04:14
13. The Coast (Work-In-Progress) 05:13
14. Spirit Voices (Work-In-Progress) 03:49
Код:
Код:

Exact Audio Copy V1.0 beta 3 from 29. August 2011

EAC extraction logfile from 9. December 2011, 14:47

Paul Simon / The Rhythm Of The Saints

Used drive  : HL-DT-STDVDRAM GSA-H60N   Adapter: 2  ID: 0

Read mode               : Secure
Utilize accurate stream : Yes
Defeat audio cache      : Yes
Make use of C2 pointers : No

Read offset correction                      : 667
Overread into Lead-In and Lead-Out          : No
Fill up missing offset samples with silence : Yes
Delete leading and trailing silent blocks   : No
Null samples used in CRC calculations       : Yes
Used interface                              : Native Win32 interface for Win NT & 2000

Used output format : Internal WAV Routines
Sample format      : 44.100 Hz; 16 Bit; Stereo

TOC of the extracted CD

     Track |   Start  |  Length  | Start sector | End sector
    ---------------------------------------------------------
        1  |  0:00.00 |  4:10.17 |         0    |    18766
        2  |  4:10.17 |  3:36.47 |     18767    |    35013
        3  |  7:46.64 |  5:04.62 |     35014    |    57875
        4  | 12:51.51 |  4:39.48 |     57876    |    78848
        5  | 17:31.24 |  5:36.20 |     78849    |   104068
        6  | 23:07.44 |  5:03.38 |    104069    |   126831
        7  | 28:11.07 |  3:48.06 |    126832    |   143937
        8  | 31:59.13 |  4:33.14 |    143938    |   164426
        9  | 36:32.27 |  3:56.26 |    164427    |   182152
       10  | 40:28.53 |  4:20.50 |    182153    |   201702
       11  | 44:49.28 |  3:50.17 |    201703    |   218969
       12  | 48:39.45 |  4:14.56 |    218970    |   238075
       13  | 52:54.26 |  5:13.58 |    238076    |   261608
       14  | 58:08.09 |  3:49.42 |    261609    |   278825

Range status and errors

Selected range

     Filename C:\Documents and Settings\Admin\Рабочий стол\Lossless Galaxy Rip by ALLexxess\2011 Paul Simon 9 Albums Sony Music Japan Mini LP Blu-spec CD\1990 The Rhythm Of The Saints\Paul Simon - The Rhythm Of The Saints.wav

     Peak level 98.8 %
     Extraction speed 6.0 X
     Range quality 100.0 %
     Test CRC B15A206A
     Copy CRC B15A206A
     Copy OK

No errors occurred

AccurateRip summary

Track  1  cannot be verified as accurate (confidence 2)  [880C9601], AccurateRip returned [796AB2F4]  (AR v2)
Track  2  cannot be verified as accurate (confidence 2)  [4142578F], AccurateRip returned [9C44C2A3]  (AR v2)
Track  3  cannot be verified as accurate (confidence 2)  [09917061], AccurateRip returned [84BC00BE]  (AR v2)
Track  4  cannot be verified as accurate (confidence 2)  [E9E132F0], AccurateRip returned [DAFA0196]  (AR v2)
Track  5  cannot be verified as accurate (confidence 2)  [3F5035C4], AccurateRip returned [6B3ACF03]  (AR v2)
Track  6  cannot be verified as accurate (confidence 2)  [1D6A65D3], AccurateRip returned [FDA60601]  (AR v2)
Track  7  cannot be verified as accurate (confidence 2)  [CBCA00A5], AccurateRip returned [E6DBE752]  (AR v2)
Track  8  cannot be verified as accurate (confidence 2)  [E091352A], AccurateRip returned [C39DFF02]  (AR v2)
Track  9  cannot be verified as accurate (confidence 2)  [729C7D09], AccurateRip returned [7069B39C]  (AR v2)
Track 10  cannot be verified as accurate (confidence 2)  [BB3DDCFD], AccurateRip returned [1345B9B4]  (AR v2)
Track 11  cannot be verified as accurate (confidence 2)  [4914B870], AccurateRip returned [61B41361]  (AR v2)
Track 12  cannot be verified as accurate (confidence 2)  [8FADDF93], AccurateRip returned [9EB3E28B]  (AR v2)
Track 13  cannot be verified as accurate (confidence 2)  [D541C41C], AccurateRip returned [BF795FA4]  (AR v2)
Track 14  cannot be verified as accurate (confidence 2)  [1062F5A3], AccurateRip returned [FD9DDF9D]  (AR v2)

No tracks could be verified as accurate
You may have a different pressing from the one(s) in the database

End of status report

==== Log checksum 10446A5653E910A76B74D638D6C3244CE33335879D865DC4EE0230A298B26507 ====

Код:
Код:

-----------------------

DON'T MODIFY THIS FILE

-----------------------

PERFORMER: auCDtect Task Manager, ver. 1.6.0 RC1 build 1.6.0.1
Copyright (c) 2008-2010 y-soft. All rights reserved
http:/y-soft.org

ANALYZER: auCDtect: CD records authenticity detector, version 0.8.2
Copyright (c) 2004 Oleg Berngardt. All rights reserved.
Copyright (c) 2004 Alexander Djourik. All rights reserved.

FILE: Paul Simon - The Rhythm Of The Saints.flac
  Size: 385142897 Hash: 46AFC5DFE4A3126F5079EBB291038EE1 Accuracy: -m0
  Conclusion: CDDA 100%
  Signature: 5381E0EB5B7ECEE7D74A69320187405C7CE9876A

Код:
Код:

REM GENRE "Rock / Pop Rock / Folk Rock"
REM DATE 1990
REM DISCID C60E850E
REM COMMENT "ExactAudioCopy v1.0b3"
PERFORMER "Paul Simon"
TITLE "The Rhythm Of The Saints"
FILE "Paul Simon - The Rhythm Of The Saints.flac" WAVE
  TRACK 01 AUDIO
    TITLE "The Obvious Child"
    PERFORMER "Paul Simon"
    INDEX 01 00:00:00
  TRACK 02 AUDIO
    TITLE "Can't Run But"
    PERFORMER "Paul Simon"
    INDEX 01 04:10:17
  TRACK 03 AUDIO
    TITLE "The Coast"
    PERFORMER "Paul Simon"
    INDEX 01 07:46:64
  TRACK 04 AUDIO
    TITLE "Proof "
    PERFORMER "Paul Simon"
    INDEX 01 12:51:51
  TRACK 05 AUDIO
    TITLE "Further To Fly"
    PERFORMER "Paul Simon"
    INDEX 01 17:31:24
  TRACK 06 AUDIO
    TITLE "She Moves On "
    PERFORMER "Paul Simon"
    INDEX 01 23:07:44
  TRACK 07 AUDIO
    TITLE "Born At The Right Time "
    PERFORMER "Paul Simon"
    INDEX 01 28:11:07
  TRACK 08 AUDIO
    TITLE "The Cool, Cool River"
    PERFORMER "Paul Simon"
    INDEX 01 31:59:13
  TRACK 09 AUDIO
    TITLE "Spirit Voices"
    PERFORMER "Paul Simon"
    INDEX 01 36:32:27
  TRACK 10 AUDIO
    TITLE "The Rhythm Of The Saints"
    PERFORMER "Paul Simon"
    INDEX 01 40:28:53
  TRACK 11 AUDIO
    TITLE "Born At The Right Time  (Original Acoustic Demo)"
    PERFORMER "Paul Simon"
    INDEX 00 44:41:31
    INDEX 01 44:49:28
  TRACK 12 AUDIO
    TITLE "Thelma (Outtake)"
    PERFORMER "Paul Simon"
    INDEX 01 48:39:45
  TRACK 13 AUDIO
    TITLE "The Coast (Work-In-Progress)"
    PERFORMER "Paul Simon"
    INDEX 01 52:54:26
  TRACK 14 AUDIO
    TITLE "Spirit Voices (Work-In-Progress)"
    PERFORMER "Paul Simon"
    INDEX 01 58:08:09

#777Продолжительность: 02:19:05
Продолжительность: 01:11:43

Трек лист:

01. The Sound Of Silence (Live At Webster Hall, 2011) - New Unreleased Version 04:25
02. The Boxer (Live At Central Park, 1991) 04:17
03. Bridge Over Troubled Water (Aretha Franklin) 05:29
04. Mother And Child Reunion 03:03
05. Tenderness 02:50
06. Peace Like A River 03:14
07. American Tune 03:44
08. Kodachrome 03:32
09. Something So Right 04:33
10. Late In The Evening 03:59
11.Train In The Distance 05:12
12. Hearts And Bones 05:39
13. Rene And Georgette Magritte With Their Dog After The War 03:23
14. Still Crazy After All These Years 03:41
15. Diamonds On The Soles Of Her Shoes 05:46
16. The Boy In The Bubble 03:58
17. Graceland 04:50
Код:
Код:

Exact Audio Copy V1.0 beta 3 from 29. August 2011

EAC extraction logfile from 7. December 2011, 20:00

Paul Simon / Songwriter CD1

Used drive  : HL-DT-STDVDRAM GSA-H60N   Adapter: 2  ID: 0

Read mode               : Secure
Utilize accurate stream : Yes
Defeat audio cache      : Yes
Make use of C2 pointers : No

Read offset correction                      : 667
Overread into Lead-In and Lead-Out          : No
Fill up missing offset samples with silence : Yes
Delete leading and trailing silent blocks   : No
Null samples used in CRC calculations       : Yes
Used interface                              : Native Win32 interface for Win NT & 2000

Used output format : Internal WAV Routines
Sample format      : 44.100 Hz; 16 Bit; Stereo

TOC of the extracted CD

     Track |   Start  |  Length  | Start sector | End sector
    ---------------------------------------------------------
        1  |  0:00.00 |  4:25.47 |         0    |    19921
        2  |  4:25.47 |  4:17.22 |     19922    |    39218
        3  |  8:42.69 |  5:29.22 |     39219    |    63915
        4  | 14:12.16 |  3:03.33 |     63916    |    77673
        5  | 17:15.49 |  2:50.52 |     77674    |    90475
        6  | 20:06.26 |  3:14.19 |     90476    |   105044
        7  | 23:20.45 |  3:44.26 |    105045    |   121870
        8  | 27:04.71 |  3:32.41 |    121871    |   137811
        9  | 30:37.37 |  4:33.56 |    137812    |   158342
       10  | 35:11.18 |  3:59.34 |    158343    |   176301
       11  | 39:10.52 |  5:12.14 |    176302    |   199715
       12  | 44:22.66 |  5:39.22 |    199716    |   225162
       13  | 50:02.13 |  3:23.24 |    225163    |   240411
       14  | 53:25.37 |  3:41.59 |    240412    |   257045
       15  | 57:07.21 |  5:46.37 |    257046    |   283032
       16  | 62:53.58 |  3:58.47 |    283033    |   300929
       17  | 66:52.30 |  4:50.71 |    300930    |   322750

Range status and errors

Selected range

     Filename C:\Documents and Settings\Admin\Рабочий стол\Lossless Galaxy Rip by ALLexxess\2011 Paul Simon 9 Albums Sony Music Japan Mini LP Blu-spec CD\2011 Songwriter 2CD Jewelcase\CD1\Paul Simon - Songwriter CD1.wav

     Peak level 100.0 %
     Extraction speed 6.3 X
     Range quality 100.0 %
     Test CRC 2139FE31
     Copy CRC 2139FE31
     Copy OK

No errors occurred

AccurateRip summary

Track  1  not present in database
Track  2  not present in database
Track  3  not present in database
Track  4  not present in database
Track  5  not present in database
Track  6  not present in database
Track  7  not present in database
Track  8  not present in database
Track  9  not present in database
Track 10  not present in database
Track 11  not present in database
Track 12  not present in database
Track 13  not present in database
Track 14  not present in database
Track 15  not present in database
Track 16  not present in database
Track 17  not present in database

None of the tracks are present in the AccurateRip database

End of status report

==== Log checksum 2744EF7224257003AC563AD97F9163B95F256240153F09009431ECE7D2646A4E ====

Код:
Код:

-----------------------

DON'T MODIFY THIS FILE

-----------------------

PERFORMER: auCDtect Task Manager, ver. 1.6.0 RC1 build 1.6.0.1
Copyright (c) 2008-2010 y-soft. All rights reserved
http:/y-soft.org

ANALYZER: auCDtect: CD records authenticity detector, version 0.8.2
Copyright (c) 2004 Oleg Berngardt. All rights reserved.
Copyright (c) 2004 Alexander Djourik. All rights reserved.

FILE: Paul Simon - Songwriter CD1.flac
  Size: 434685130 Hash: 32E204E3E810E1F15E88FB36A564A7C9 Accuracy: -m0
  Conclusion: CDDA 100%
  Signature: 811B194C8BBB45D5D17945D282E5A8215FC55464

Код:
Код:

REM GENRE "Rock / Pop Rock / Folk Rock"
REM DATE 2011
REM DISCID D710CF11
REM COMMENT "ExactAudioCopy v1.0b3"
PERFORMER "Paul Simon"
TITLE "Songwriter CD1"
FILE "Paul Simon - Songwriter CD1.flac" WAVE
  TRACK 01 AUDIO
    TITLE "The Sound Of Silence (Live At Webster Hall, 2011) - New Unreleased Version"
    PERFORMER "Paul Simon"
    INDEX 01 00:00:00
  TRACK 02 AUDIO
    TITLE "The Boxer (Live At Central Park, 1991)"
    PERFORMER "Paul Simon"
    INDEX 01 04:25:47
  TRACK 03 AUDIO
    TITLE "Bridge Over Troubled Water (Aretha Franklin)"
    PERFORMER "Paul Simon"
    INDEX 01 08:42:69
  TRACK 04 AUDIO
    TITLE "Mother And Child Reunion"
    PERFORMER "Paul Simon"
    INDEX 01 14:12:16
  TRACK 05 AUDIO
    TITLE "Tenderness"
    PERFORMER "Paul Simon"
    INDEX 01 17:15:49
  TRACK 06 AUDIO
    TITLE "Peace Like A River"
    PERFORMER "Paul Simon"
    INDEX 01 20:06:26
  TRACK 07 AUDIO
    TITLE "American Tune"
    PERFORMER "Paul Simon"
    INDEX 01 23:20:45
  TRACK 08 AUDIO
    TITLE "Kodachrome"
    PERFORMER "Paul Simon"
    INDEX 01 27:04:71
  TRACK 09 AUDIO
    TITLE "Something So Right"
    PERFORMER "Paul Simon"
    INDEX 01 30:37:37
  TRACK 10 AUDIO
    TITLE "Late In The Evening"
    PERFORMER "Paul Simon"
    INDEX 01 35:11:18
  TRACK 11 AUDIO
    TITLE "Train In The Distance"
    PERFORMER "Paul Simon"
    INDEX 01 39:10:52
  TRACK 12 AUDIO
    TITLE "Hearts And Bones"
    PERFORMER "Paul Simon"
    INDEX 01 44:22:66
  TRACK 13 AUDIO
    TITLE "Rene And Georgette Magritte With Their Dog After The War"
    PERFORMER "Paul Simon"
    INDEX 01 50:02:13
  TRACK 14 AUDIO
    TITLE "Still Crazy After All These Years"
    PERFORMER "Paul Simon"
    INDEX 01 53:25:37
  TRACK 15 AUDIO
    TITLE "Diamonds On The Soles Of Her Shoes"
    PERFORMER "Paul Simon"
    INDEX 01 57:07:21
  TRACK 16 AUDIO
    TITLE "The Boy In The Bubble"
    PERFORMER "Paul Simon"
    INDEX 01 62:53:58
  TRACK 17 AUDIO
    TITLE "Graceland"
    PERFORMER "Paul Simon"
    INDEX 01 66:52:30

Продолжительность: 01:07:22
Трек лист:

01. Obvious Child 04:08
02. Further To Fly 05:31
03. The Cool, Cool River 04:30
04. Spirit Voices 03:55
05. Born In Puerto Rico 04:55
06. Quality 04:12
07. Darling Lorraine 06:35
08. Look At That 03:51
09. Senorita With A Necklace Of Tears 03:37
10. That’s Me 04:34
11. Another Galaxy 05:19
12. Father And Daughter 04:07
13. Rewrite 03:49
14. Love And Hard Times 04:05
15. So Beautiful Or So What 04:06
Код:
Код:
Exact Audio Copy V1.0 beta 3 from 29. August 2011

EAC extraction logfile from 7. December 2011, 20:43

Paul Simon / Songwriter CD2

Used drive  : HL-DT-STDVDRAM GSA-H60N   Adapter: 2  ID: 0

Read mode               : Secure
Utilize accurate stream : Yes
Defeat audio cache      : Yes
Make use of C2 pointers : No

Read offset correction                      : 667
Overread into Lead-In and Lead-Out          : No
Fill up missing offset samples with silence : Yes
Delete leading and trailing silent blocks   : No
Null samples used in CRC calculations       : Yes
Used interface                              : Native Win32 interface for Win NT & 2000

Used output format : Internal WAV Routines
Sample format      : 44.100 Hz; 16 Bit; Stereo

TOC of the extracted CD

     Track |   Start  |  Length  | Start sector | End sector
    ---------------------------------------------------------
        1  |  0:00.00 |  4:08.41 |         0    |    18640
        2  |  4:08.41 |  5:31.16 |     18641    |    43481
        3  |  9:39.57 |  4:30.07 |     43482    |    63738
        4  | 14:09.64 |  3:55.61 |     63739    |    81424
        5  | 18:05.50 |  4:55.52 |     81425    |   103601
        6  | 23:01.27 |  4:12.37 |    103602    |   122538
        7  | 27:13.64 |  6:35.48 |    122539    |   152211
        8  | 33:49.37 |  3:51.71 |    152212    |   169607
        9  | 37:41.33 |  3:37.59 |    169608    |   185941
       10  | 41:19.17 |  4:34.51 |    185942    |   206542
       11  | 45:53.68 |  5:19.07 |    206543    |   230474
       12  | 51:13.00 |  4:07.37 |    230475    |   249036
       13  | 55:20.37 |  3:49.49 |    249037    |   266260
       14  | 59:10.11 |  4:05.39 |    266261    |   284674
       15  | 63:15.50 |  4:06.46 |    284675    |   303170

Range status and errors

Selected range

     Filename C:\Documents and Settings\Admin\Рабочий стол\Lossless Galaxy Rip by ALLexxess\2011 Paul Simon 9 Albums Sony Music Japan Mini LP Blu-spec CD\2011 Songwriter 2CD Jewelcase\CD2\Paul Simon - Songwriter CD2.wav

     Peak level 100.0 %
     Extraction speed 6.2 X
     Range quality 100.0 %
     Test CRC 91A919ED
     Copy CRC 91A919ED
     Copy OK

No errors occurred

AccurateRip summary

Track  1  not present in database
Track  2  not present in database
Track  3  not present in database
Track  4  not present in database
Track  5  not present in database
Track  6  not present in database
Track  7  not present in database
Track  8  not present in database
Track  9  not present in database
Track 10  not present in database
Track 11  not present in database
Track 12  not present in database
Track 13  not present in database
Track 14  not present in database
Track 15  not present in database

None of the tracks are present in the AccurateRip database

End of status report

==== Log checksum 5FFB1085C04F4F26A51B8568FEF28B6906DFCA2DC760D2C425DEC6DA3FE4EA5A ====

Код:
Код:

-----------------------

DON'T MODIFY THIS FILE

-----------------------

PERFORMER: auCDtect Task Manager, ver. 1.6.0 RC1 build 1.6.0.1
Copyright (c) 2008-2010 y-soft. All rights reserved
http:/y-soft.org

ANALYZER: auCDtect: CD records authenticity detector, version 0.8.2
Copyright (c) 2004 Oleg Berngardt. All rights reserved.
Copyright (c) 2004 Alexander Djourik. All rights reserved.

FILE: Paul Simon - Songwriter CD2.flac
  Size: 417355584 Hash: C6AC458202C622E1EFE975FADB16A110 Accuracy: -m0
  Conclusion: CDDA 100%
  Signature: AC263651FC29C03E96C843C7686D0B677FCCA3B6

Код:
Код:

REM GENRE "Rock / Pop Rock / Folk Rock"
REM DATE 2011
REM DISCID CA0FCA0F
REM COMMENT "ExactAudioCopy v1.0b3"
PERFORMER "Paul Simon"
TITLE "Songwriter CD2"
FILE "Paul Simon - Songwriter CD2.flac" WAVE
  TRACK 01 AUDIO
    TITLE "The Obvious Child"
    PERFORMER "Paul Simon"
    INDEX 01 00:00:00
  TRACK 02 AUDIO
    TITLE "Further To Fly"
    PERFORMER "Paul Simon"
    INDEX 01 04:08:41
  TRACK 03 AUDIO
    TITLE "The Cool, Cool River"
    PERFORMER "Paul Simon"
    INDEX 01 09:39:57
  TRACK 04 AUDIO
    TITLE "Spirit Voices"
    PERFORMER "Paul Simon"
    INDEX 01 14:09:64
  TRACK 05 AUDIO
    TITLE "Born In Puerto Rico"
    PERFORMER "Paul Simon"
    INDEX 01 18:05:50
  TRACK 06 AUDIO
    TITLE "Quality"
    PERFORMER "Paul Simon"
    INDEX 01 23:01:27
  TRACK 07 AUDIO
    TITLE "Darling Lorraine"
    PERFORMER "Paul Simon"
    INDEX 01 27:13:64
  TRACK 08 AUDIO
    TITLE "Look At That"
    PERFORMER "Paul Simon"
    INDEX 01 33:49:37
  TRACK 09 AUDIO
    TITLE "Senorita With A Necklace Of Tears"
    PERFORMER "Paul Simon"
    INDEX 01 37:41:33
  TRACK 10 AUDIO
    TITLE "That's Me"
    PERFORMER "Paul Simon"
    INDEX 01 41:19:17
  TRACK 11 AUDIO
    TITLE "Another Galaxy"
    PERFORMER "Paul Simon"
    INDEX 01 45:53:68
  TRACK 12 AUDIO
    TITLE "Father And Daughter"
    PERFORMER "Paul Simon"
    INDEX 01 51:13:00
  TRACK 13 AUDIO
    TITLE "Rewrite"
    PERFORMER "Paul Simon"
    INDEX 01 55:20:37
  TRACK 14 AUDIO
    TITLE "Love And Hard Times"
    PERFORMER "Paul Simon"
    INDEX 01 59:10:11
  TRACK 15 AUDIO
    TITLE "So Beautiful Or So What"
    PERFORMER "Paul Simon"
    INDEX 01 63:15:50

Правила, инструкции, FAQ!!!
Торрент  Добавлен [16 мар 2014, 00:22] Скачать торрент Магнет ссылка
Скачать торрент
[ Размер 58.25 КБ / Просмотров 47 ]

Статус  
 
Размер  4.47 ГБ
Приватный: Нет (DHT включён)
.torrent скачан  0
 


     Отправить личное сообщение
   
Страница 1 из 1
Показать сообщения за:  Поле сортировки  
Начать новую тему Ответить на тему


Сейчас этот форум просматривают: нет зарегистрированных пользователей и гости: 0


Вы не можете начинать темы
Вы не можете отвечать на сообщения
Вы не можете редактировать свои сообщения
Вы не можете удалять свои сообщения
Вы не можете добавлять вложения

Перейти:  
cron