Начать новую тему Ответить на тему
Статистика раздачи
Размер: 1.66 ГБ | Добавлен: 06 июл 2013, 22:28 | Скачали: 0
Сидеров: 2  [0 байт/сек]    Личеров: 8  [0 байт/сек]
Пред. тема | След. тема 

Автор
Сообщение

СообщениеДобавлено: 06 июл 2013, 22:28 

Ответить с цитатой 

Год: 1976
Жанр:
Rock
Лейбл: Universal Music. Made in Japan.
Каталог #: UCCO-90226
Продолжительность: 01:43:28
Кодек: FLAC
Тип рипа: image + .cue
Битрейт: Lossless
#777
Трек лист:

01. Venus And Mars / Rock Show / Jet [10:20]
02. Let Me Roll It [03:44]
03. Spirits Of Ancient Egypt [04:05]
04. Medicine Jar [04:06]
05. Maybe I'm Amazed [05:20]
06. Call Me Back Again [05:15]
07. Lady Madonna [02:37]
08. The Long And Winding Road [04:28]
09. Live And Let Die [03:20]
10. Picasso's Last Words [01:53]
11. Richard Cory [03:05]
12. Bluebird [03:43]
13. I've Just Seen A Face [02:10]
14. Blackbird [02:27]
15. Yesterday [01:55]

Продолжительноcть: 00:58:37
Код:
Код:
Exact Audio Copy V1.0 beta 3 from 29. August 2011

EAC extraction logfile from 28. June 2013, 20:46

Paul McCartney & Wings / Wings Over America CD1

Used drive  : PLEXTOR BD-R  PX-B950SA   Adapter: 6  ID: 0

Read mode               : Secure
Utilize accurate stream : Yes
Defeat audio cache      : Yes
Make use of C2 pointers : No

Read offset correction                      : 6
Overread into Lead-In and Lead-Out          : No
Fill up missing offset samples with silence : Yes
Delete leading and trailing silent blocks   : No
Null samples used in CRC calculations       : Yes
Used interface                              : Native Win32 interface for Win NT & 2000

Used output format : Internal WAV Routines
Sample format      : 44.100 Hz; 16 Bit; Stereo

TOC of the extracted CD

     Track |   Start  |  Length  | Start sector | End sector
    ---------------------------------------------------------
        1  |  0:00.00 | 10:20.56 |         0    |    46555
        2  | 10:20.56 |  3:44.71 |     46556    |    63426
        3  | 14:05.52 |  4:05.51 |     63427    |    81852
        4  | 18:11.28 |  4:06.42 |     81853    |   100344
        5  | 22:17.70 |  5:20.46 |    100345    |   124390
        6  | 27:38.41 |  5:15.71 |    124391    |   148086
        7  | 32:54.37 |  2:37.39 |    148087    |   159900
        8  | 35:32.01 |  4:28.62 |    159901    |   180062
        9  | 40:00.63 |  3:20.55 |    180063    |   195117
       10  | 43:21.43 |  1:53.70 |    195118    |   203662
       11  | 45:15.38 |  3:05.20 |    203663    |   217557
       12  | 48:20.58 |  3:43.48 |    217558    |   234330
       13  | 52:04.31 |  2:10.00 |    234331    |   244080
       14  | 54:14.31 |  2:27.31 |    244081    |   255136
       15  | 56:41.62 |  1:55.74 |    255137    |   263835

Range status and errors

Selected range

     Filename C:\Users\Meijin\Desktop\Lossless Galaxy ALLexxess\Paul McCartney & Wings\1976 Wings Over America (3SHM-CD + DVD Super Deluxe Box Set Universal Japan 2013)\CD1\Paul McCartney & Wings - Wings Over America CD1.wav

     Peak level 98.0 %
     Extraction speed 7.4 X
     Range quality 100.0 %
     Test CRC B15B93A3
     Copy CRC B15B93A3
     Copy OK

No errors occurred

AccurateRip summary

Track  1  accurately ripped (confidence 1)  [E0FE57FC]  (AR v2)
Track  2  accurately ripped (confidence 1)  [9F15DDFB]  (AR v2)
Track  3  accurately ripped (confidence 1)  [E9632F72]  (AR v2)
Track  4  accurately ripped (confidence 1)  [E89C8B44]  (AR v2)
Track  5  accurately ripped (confidence 1)  [1859994E]  (AR v2)
Track  6  accurately ripped (confidence 1)  [E2FC5018]  (AR v2)
Track  7  accurately ripped (confidence 1)  [6AD1B444]  (AR v2)
Track  8  accurately ripped (confidence 1)  [A4E40275]  (AR v2)
Track  9  accurately ripped (confidence 1)  [D248EC96]  (AR v2)
Track 10  accurately ripped (confidence 1)  [E7F76DE1]  (AR v2)
Track 11  accurately ripped (confidence 1)  [FF283953]  (AR v2)
Track 12  accurately ripped (confidence 1)  [65716BD8]  (AR v2)
Track 13  accurately ripped (confidence 1)  [DBC63F7A]  (AR v2)
Track 14  accurately ripped (confidence 1)  [171D3014]  (AR v2)
Track 15  accurately ripped (confidence 1)  [0EB62DB8]  (AR v2)

All tracks accurately ripped

End of status report

==== Log checksum BE245CDBB6BC9D15C3F58C5164E769E36DD1686903B4A7A234C45523D706CF16 ====
Код:
Код:
-----------------------

DON'T MODIFY THIS FILE

-----------------------

PERFORMER: auCDtect Task Manager, ver. 1.6.0 RC1 build 1.6.0.1
Copyright (c) 2008-2010 y-soft. All rights reserved
http:/y-soft.org

ANALYZER: auCDtect: CD records authenticity detector, version 0.8.2
Copyright (c) 2004 Oleg Berngardt. All rights reserved.
Copyright (c) 2004 Alexander Djourik. All rights reserved.

FILE: Paul McCartney & Wings - Wings Over America CD1.flac
  Size: 390206914 Hash: 1053CB74E3AA8B83CC2835001EFD8B33 Accuracy: -m0
  Conclusion: CDDA 100%
  Signature: 9DE24A0159C70C538599A092BBD89D5ED7BCA186
Код:
Код:
REM GENRE Rock
REM DATE 1976
REM DISCID C10DBD0F
REM COMMENT "ExactAudioCopy v1.0b3"
PERFORMER "Paul McCartney & Wings"
TITLE "Wings Over America CD1"
FILE "Paul McCartney & Wings - Wings Over America CD1.flac" WAVE
  TRACK 01 AUDIO
    TITLE "Venus And Mars / Rock Show / Jet"
    PERFORMER "Paul McCartney & Wings"
    INDEX 01 00:00:00
  TRACK 02 AUDIO
    TITLE "Let Me Roll It"
    PERFORMER "Paul McCartney & Wings"
    INDEX 01 10:20:56
  TRACK 03 AUDIO
    TITLE "Spirits Of Ancient Egypt"
    PERFORMER "Paul McCartney & Wings"
    INDEX 01 14:05:52
  TRACK 04 AUDIO
    TITLE "Medicine Jar"
    PERFORMER "Paul McCartney & Wings"
    INDEX 01 18:11:28
  TRACK 05 AUDIO
    TITLE "Maybe I'm Amazed"
    PERFORMER "Paul McCartney & Wings"
    INDEX 01 22:17:70
  TRACK 06 AUDIO
    TITLE "Call Me Back Again"
    PERFORMER "Paul McCartney & Wings"
    INDEX 01 27:38:41
  TRACK 07 AUDIO
    TITLE "Lady Madonna"
    PERFORMER "Paul McCartney & Wings"
    INDEX 01 32:54:37
  TRACK 08 AUDIO
    TITLE "The Long And Winding Road"
    PERFORMER "Paul McCartney & Wings"
    INDEX 01 35:32:01
  TRACK 09 AUDIO
    TITLE "Live And Let Die"
    PERFORMER "Paul McCartney & Wings"
    INDEX 01 40:00:63
  TRACK 10 AUDIO
    TITLE "Picasso's Last Words"
    PERFORMER "Paul McCartney & Wings"
    INDEX 01 43:21:43
  TRACK 11 AUDIO
    TITLE "Richard Cory"
    PERFORMER "Paul McCartney & Wings"
    INDEX 01 45:15:38
  TRACK 12 AUDIO
    TITLE "Bluebird"
    PERFORMER "Paul McCartney & Wings"
    INDEX 01 48:20:58
  TRACK 13 AUDIO
    TITLE "I've Just Seen A Face"
    PERFORMER "Paul McCartney & Wings"
    INDEX 01 52:04:31
  TRACK 14 AUDIO
    TITLE "Blackbird"
    PERFORMER "Paul McCartney & Wings"
    INDEX 01 54:14:31
  TRACK 15 AUDIO
    TITLE "Yesterday"
    PERFORMER "Paul McCartney & Wings"
    INDEX 01 56:41:62
#777
Трек лиcт:

01. You Gave Me The Answer [02:06]
02. Magneto And Titanium Man [03:21]
03. Go Now [03:46]
04. My Love [04:14]
05. Listen To What The Man Said [03:32]
06. Let 'Em In [04:08]
07. Time To Hide [04:56]
08. Silly Love Songs [06:04]
09. Beware My Love [04:58]
10. Letting Go [04:33]
11. Band On The Run [05:30]
12. Hi Hi Hi [03:48]
13. Soily [05:47]

Продолжительноcть: 00:56:50
Код:
Код:
Exact Audio Copy V1.0 beta 3 from 29. August 2011

EAC extraction logfile from 28. June 2013, 20:11

Paul McCartney & Wings / Wings Over America CD2

Used drive  : PLEXTOR BD-R  PX-B950SA   Adapter: 6  ID: 0

Read mode               : Secure
Utilize accurate stream : Yes
Defeat audio cache      : Yes
Make use of C2 pointers : No

Read offset correction                      : 6
Overread into Lead-In and Lead-Out          : No
Fill up missing offset samples with silence : Yes
Delete leading and trailing silent blocks   : No
Null samples used in CRC calculations       : Yes
Used interface                              : Native Win32 interface for Win NT & 2000

Used output format : Internal WAV Routines
Sample format      : 44.100 Hz; 16 Bit; Stereo

TOC of the extracted CD

     Track |   Start  |  Length  | Start sector | End sector
    ---------------------------------------------------------
        1  |  0:00.00 |  2:06.02 |         0    |     9451
        2  |  2:06.02 |  3:21.33 |      9452    |    24559
        3  |  5:27.35 |  3:46.71 |     24560    |    41580
        4  |  9:14.31 |  4:14.55 |     41581    |    60685
        5  | 13:29.11 |  3:32.69 |     60686    |    76654
        6  | 17:02.05 |  4:08.38 |     76655    |    95292
        7  | 21:10.43 |  4:56.43 |     95293    |   117535
        8  | 26:07.11 |  6:04.23 |    117536    |   144858
        9  | 32:11.34 |  4:58.70 |    144859    |   167278
       10  | 37:10.29 |  4:33.68 |    167279    |   187821
       11  | 41:44.22 |  5:30.31 |    187822    |   212602
       12  | 47:14.53 |  3:48.38 |    212603    |   229740
       13  | 51:03.16 |  5:47.17 |    229741    |   255782

Range status and errors

Selected range

     Filename C:\Users\Meijin\Desktop\Lossless Galaxy ALLexxess\Paul McCartney & Wings\1976 Wings Over America (3SHM-CD + DVD Super Deluxe Box Set Universal Japan 2013)\CD2\Paul McCartney & Wings - Wings Over America CD2.wav

     Peak level 98.4 %
     Extraction speed 7.4 X
     Range quality 100.0 %
     Test CRC BD0D988A
     Copy CRC BD0D988A
     Copy OK

No errors occurred

AccurateRip summary

Track  1  not present in database
Track  2  not present in database
Track  3  not present in database
Track  4  not present in database
Track  5  not present in database
Track  6  not present in database
Track  7  not present in database
Track  8  not present in database
Track  9  not present in database
Track 10  not present in database
Track 11  not present in database
Track 12  not present in database
Track 13  not present in database

None of the tracks are present in the AccurateRip database

End of status report

==== Log checksum 0642A7FE7CCADCEA2D8707E8C28AE489D240B6867E3790B461C4C9BC082C563A ====
Код:
Код:
-----------------------

DON'T MODIFY THIS FILE

-----------------------

PERFORMER: auCDtect Task Manager, ver. 1.6.0 RC1 build 1.6.0.1
Copyright (c) 2008-2010 y-soft. All rights reserved
http:/y-soft.org

ANALYZER: auCDtect: CD records authenticity detector, version 0.8.2
Copyright (c) 2004 Oleg Berngardt. All rights reserved.
Copyright (c) 2004 Alexander Djourik. All rights reserved.

FILE: Paul McCartney & Wings - Wings Over America CD2.flac
  Size: 389504732 Hash: F7F623901FC479787F9A5B9B43430169 Accuracy: -m0
  Conclusion: CDDA 100%
  Signature: 09B094756449C3D4C4EC499DA4116958A7458A6E
Код:
Код:
REM GENRE Rock
REM DATE 1976
REM DISCID A40D520D
REM COMMENT "ExactAudioCopy v1.0b3"
PERFORMER "Paul McCartney & Wings"
TITLE "Wings Over America CD2"
FILE "Paul McCartney & Wings - Wings Over America CD2.flac" WAVE
  TRACK 01 AUDIO
    TITLE "You Gave Me The Answer"
    PERFORMER "Paul McCartney & Wings"
    INDEX 01 00:00:00
  TRACK 02 AUDIO
    TITLE "Magneto And Titanium Man"
    PERFORMER "Paul McCartney & Wings"
    INDEX 01 02:06:02
  TRACK 03 AUDIO
    TITLE "Go Now"
    PERFORMER "Paul McCartney & Wings"
    INDEX 01 05:27:35
  TRACK 04 AUDIO
    TITLE "My Love"
    PERFORMER "Paul McCartney & Wings"
    INDEX 01 09:14:31
  TRACK 05 AUDIO
    TITLE "Listen To What The Man Said"
    PERFORMER "Paul McCartney & Wings"
    INDEX 01 13:29:11
  TRACK 06 AUDIO
    TITLE "Let 'Em In"
    PERFORMER "Paul McCartney & Wings"
    INDEX 01 17:02:05
  TRACK 07 AUDIO
    TITLE "Time To Hide"
    PERFORMER "Paul McCartney & Wings"
    INDEX 01 21:10:43
  TRACK 08 AUDIO
    TITLE "Silly Love Songs"
    PERFORMER "Paul McCartney & Wings"
    INDEX 01 26:07:11
  TRACK 09 AUDIO
    TITLE "Beware My Love"
    PERFORMER "Paul McCartney & Wings"
    INDEX 01 32:11:34
  TRACK 10 AUDIO
    TITLE "Letting Go"
    PERFORMER "Paul McCartney & Wings"
    INDEX 01 37:10:29
  TRACK 11 AUDIO
    TITLE "Band On The Run"
    PERFORMER "Paul McCartney & Wings"
    INDEX 01 41:44:22
  TRACK 12 AUDIO
    TITLE "Hi Hi Hi"
    PERFORMER "Paul McCartney & Wings"
    INDEX 01 47:14:53
  TRACK 13 AUDIO
    TITLE "Soily"
    PERFORMER "Paul McCartney & Wings"
    INDEX 01 51:03:16
#777
Трек лиcт:

01. Let Me Roll It [04:18]
02. Maybe I'm Amazed [05:26]
03. Lady Madonna [03:22]
04. Live And Let Die [03:38]
05. Picasso's Last Words [02:13]
06. Bluebird [04:27]
07. Blackbird [02:37]
08. Yesterday [01:56]

Продолжительноcть: 00:28:01
Код:
Код:
Exact Audio Copy V1.0 beta 3 from 29. August 2011

EAC extraction logfile from 28. June 2013, 19:33

Paul McCartney & Wings / Wings Over America CD3

Used drive  : PLEXTOR BD-R  PX-B950SA   Adapter: 6  ID: 0

Read mode               : Secure
Utilize accurate stream : Yes
Defeat audio cache      : Yes
Make use of C2 pointers : No

Read offset correction                      : 6
Overread into Lead-In and Lead-Out          : No
Fill up missing offset samples with silence : Yes
Delete leading and trailing silent blocks   : No
Null samples used in CRC calculations       : Yes
Used interface                              : Native Win32 interface for Win NT & 2000

Used output format : Internal WAV Routines
Sample format      : 44.100 Hz; 16 Bit; Stereo

TOC of the extracted CD

     Track |   Start  |  Length  | Start sector | End sector
    ---------------------------------------------------------
        1  |  0:00.00 |  4:18.39 |         0    |    19388
        2  |  4:18.39 |  5:26.51 |     19389    |    43889
        3  |  9:45.15 |  3:22.07 |     43890    |    59046
        4  | 13:07.22 |  3:38.11 |     59047    |    75407
        5  | 16:45.33 |  2:13.65 |     75408    |    85447
        6  | 18:59.23 |  4:27.70 |     85448    |   105542
        7  | 23:27.18 |  2:37.38 |    105543    |   117355
        8  | 26:04.56 |  1:56.64 |    117356    |   126119

Range status and errors

Selected range

     Filename C:\Users\Meijin\Desktop\Lossless Galaxy ALLexxess\Paul McCartney & Wings\1976 Wings Over America (3SHM-CD + DVD Super Deluxe Box Set Universal Japan 2013)\CD3\Paul McCartney & Wings - Wings Over America CD3.wav

     Peak level 99.1 %
     Extraction speed 6.0 X
     Range quality 99.9 %
     Test CRC 8E43598C
     Copy CRC 8E43598C
     Copy OK

No errors occurred

AccurateRip summary

Track  1  not present in database
Track  2  not present in database
Track  3  not present in database
Track  4  not present in database
Track  5  not present in database
Track  6  not present in database
Track  7  not present in database
Track  8  not present in database

None of the tracks are present in the AccurateRip database

End of status report

==== Log checksum 51534FA5A5A43FFF9FE8146F9D1F4FF967EED08CBA8DD737A39A65D2F48E700E ====
Код:
Код:
-----------------------

DON'T MODIFY THIS FILE

-----------------------

PERFORMER: auCDtect Task Manager, ver. 1.6.0 RC1 build 1.6.0.1
Copyright (c) 2008-2010 y-soft. All rights reserved
http:/y-soft.org

ANALYZER: auCDtect: CD records authenticity detector, version 0.8.2
Copyright (c) 2004 Oleg Berngardt. All rights reserved.
Copyright (c) 2004 Alexander Djourik. All rights reserved.

FILE: Paul McCartney & Wings - Wings Over America CD3.flac
  Size: 180549656 Hash: 8153A5457FFB4C522540FCC629C36DAD Accuracy: -m0
  Conclusion: CDDA 100%
  Signature: BE860806F26D47763277E2CF99EF2D9D0BEF02C8
Код:
Код:
REM GENRE Rock
REM DATE 2013
REM DISCID 65069108
REM COMMENT "ExactAudioCopy v1.0b3"
PERFORMER "Paul McCartney & Wings"
TITLE "Wings Over America CD3"
FILE "Paul McCartney & Wings - Wings Over America CD3.flac" WAVE
  TRACK 01 AUDIO
    TITLE "Let Me Roll It"
    PERFORMER "Paul McCartney & Wings"
    INDEX 01 00:00:00
  TRACK 02 AUDIO
    TITLE "Maybe I'm Amazed"
    PERFORMER "Paul McCartney & Wings"
    INDEX 01 04:18:39
  TRACK 03 AUDIO
    TITLE "Lady Madonna"
    PERFORMER "Paul McCartney & Wings"
    INDEX 01 09:45:15
  TRACK 04 AUDIO
    TITLE "Live And Let Die"
    PERFORMER "Paul McCartney & Wings"
    INDEX 01 13:07:22
  TRACK 05 AUDIO
    TITLE "Picasso's Last Words"
    PERFORMER "Paul McCartney & Wings"
    INDEX 01 16:45:33
  TRACK 06 AUDIO
    TITLE "Bluebird"
    PERFORMER "Paul McCartney & Wings"
    INDEX 01 18:59:23
  TRACK 07 AUDIO
    TITLE "Blackbird"
    PERFORMER "Paul McCartney & Wings"
    INDEX 01 23:27:18
  TRACK 08 AUDIO
    TITLE "Yesterday"
    PERFORMER "Paul McCartney & Wings"
    INDEX 01 26:04:56
Правила, инструкции, FAQ!!!
Торрент  Добавлен [06 июл 2013, 22:28] Скачать торрент Магнет ссылка
Скачать торрент
[ Размер 58.7 КБ / Просмотров 31 ]

Статус  
 
Размер  1.66 ГБ
Приватный: Нет (DHT включён)
.torrent скачан  0
 


     Отправить личное сообщение
   
Страница 1 из 1
Показать сообщения за:  Поле сортировки  
Начать новую тему Ответить на тему


Сейчас этот форум просматривают: нет зарегистрированных пользователей и гости: 0


Вы не можете начинать темы
Вы не можете отвечать на сообщения
Вы не можете редактировать свои сообщения
Вы не можете удалять свои сообщения
Вы не можете добавлять вложения

Перейти:  
cron