Начать новую тему Ответить на тему
Статистика раздачи
Размер: 461.24 МБ | Добавлен: 05 дек 2013, 10:38 | Скачали: 1
Сидеров: 1  [0 байт/сек]    Личеров: 1  [0 байт/сек]
Пред. тема | След. тема 

Автор
Сообщение

СообщениеДобавлено: 05 дек 2013, 10:38 

Ответить с цитатой 

Paul McCartney - New (2013) US Deluxe Edition

Год: 2013
Жанр: Classic Rock
Продолжительность: 00:52:22
Лейбл: Hear Music / Concord Music Group
Barcode: 8 88072 34845 5
Сканы: Комплект
Кодек: FLAC (image+.cue)
Битрейт: Lossless

Трек лист:
01. Save Us [2:39]
02. Alligator [3:27]
03. On My Way To Work [3:43]
04. Queenie Eye [3:48]
05. Early Days [4:08]
06. New [2:57]
07. Appreciate [4:29]
08. Everybody Out There [3:21]
09. Hosanna [3:30]
10. I Can Bet [3:22]
11. Looking At Her [3:05]
12. Road [4:36]
13. Turned Out [3:00]
14. Get Me Out Of Here [3:28]
15. Scared (hidden track) [2:49]


Код:
Код:
REM GENRE "Classic Rock"
REM DATE 2013
REM DISCID CE0C450F
REM COMMENT "ExactAudioCopy v1.0b3"
PERFORMER "Paul McCartney"
TITLE "New (Deluxe edition)"
FILE "Paul McCartney - New (Deluxe edition).flac" WAVE
  TRACK 01 AUDIO
    TITLE "Save Us"
    PERFORMER "Paul McCartney"
    INDEX 01 00:00:00
  TRACK 02 AUDIO
    TITLE "Alligator"
    PERFORMER "Paul McCartney"
    INDEX 01 02:39:26
  TRACK 03 AUDIO
    TITLE "On My Way To Work"
    PERFORMER "Paul McCartney"
    INDEX 01 06:06:35
  TRACK 04 AUDIO
    TITLE "Queenie Eye"
    PERFORMER "Paul McCartney"
    INDEX 01 09:49:48
  TRACK 05 AUDIO
    TITLE "Early Days"
    PERFORMER "Paul McCartney"
    INDEX 01 13:37:51
  TRACK 06 AUDIO
    TITLE "New"
    PERFORMER "Paul McCartney"
    INDEX 01 17:45:30
  TRACK 07 AUDIO
    TITLE "Appreciate"
    PERFORMER "Paul McCartney"
    INDEX 01 20:42:11
  TRACK 08 AUDIO
    TITLE "Everybody Out There"
    PERFORMER "Paul McCartney"
    INDEX 01 25:10:58
  TRACK 09 AUDIO
    TITLE "Hosanna"
    PERFORMER "Paul McCartney"
    INDEX 01 28:32:03
  TRACK 10 AUDIO
    TITLE "I Can Bet"
    PERFORMER "Paul McCartney"
    INDEX 01 32:01:64
  TRACK 11 AUDIO
    TITLE "Looking At Her"
    PERFORMER "Paul McCartney"
    INDEX 01 35:23:61
  TRACK 12 AUDIO
    TITLE "Road"
    PERFORMER "Paul McCartney"
    INDEX 01 38:29:15
  TRACK 13 AUDIO
    TITLE "Turned Out"
    PERFORMER "Paul McCartney"
    INDEX 00 43:00:27
    INDEX 01 43:05:26
  TRACK 14 AUDIO
    TITLE "Get Me Out Of Here"
    PERFORMER "Paul McCartney"
    INDEX 01 46:05:18
  TRACK 15 AUDIO
    TITLE "Scared (hidden track)"
    PERFORMER "Paul McCartney"
    INDEX 00 49:12:62
    INDEX 01 49:33:09
Код:
Код:
Exact Audio Copy V1.0 beta 3 from 29. August 2011

Отчёт EAC об извлечении, выполненном 15. октября 2013, 20:59

Paul McCartney / New (Deluxe edition)

Дисковод: PLEXTOR DVDR   PX-880SA   Adapter: 1  ID: 0

Режим чтения                 : Достоверность
Использование точного потока : Да
Отключение кэша аудио        : Да
Использование указателей C2  : Нет

Коррекция смещения при чтении                     : 6
Способность читать области Lead-in и Lead-out     : Нет
Заполнение пропущенных сэмплов тишиной            : Да
Удаление блоков с тишиной в начале и конце        : Нет
При вычислениях CRC использовались нулевые сэмплы : Да
Интерфейс                                         : Установленный внешний ASPI-интерфейс

Выходной формат          : Пользовательский кодировщик
Выбранный битрейт        : 1024 kBit/s
Качество                 : Высокий
Добавление ID3-тега      : Нет
Утилита сжатия           : C:\Program Files\Exact Audio Copy\FLAC\FLAC.EXE
Дополнительные параметры : -10 -V -T "ARTIST=%artist%" -T "TITLE=%title%" -T "ALBUM=%albumtitle%" -T "DATE=%year%" -T "TRACKNUMBER=%tracknr%" -T "GENRE=%genre%" -T "COMMENT=%comment%" -T "BAND=%albuminterpret%" -T "ALBUMARTIST=%albuminterpret%" -T "COMPOSER=%composer%" %haslyrics%--tag-from-file=LYRICS="%lyricsfile%"%haslyrics% -T "DISCNUMBER=%cdnumber%" -T "TOTALDISCS=%totalcds%" -T "TOTALTRACKS=%numtracks%" %hascover%--picture="%coverfile%"%hascover% %source% -o %dest%

TOC извлечённого CD

     Трек |   Старт  | Длительность | Начальный сектор | Конечный сектор
    ---------------------------------------------------------------------
       1  |  0:00.00 |    2:39.26   |           0      |      11950
       2  |  2:39.26 |    3:27.09   |       11951      |      27484
       3  |  6:06.35 |    3:43.13   |       27485      |      44222
       4  |  9:49.48 |    3:48.03   |       44223      |      61325
       5  | 13:37.51 |    4:07.54   |       61326      |      79904
       6  | 17:45.30 |    2:56.56   |       79905      |      93160
       7  | 20:42.11 |    4:28.47   |       93161      |     113307
       8  | 25:10.58 |    3:21.20   |      113308      |     128402
       9  | 28:32.03 |    3:29.61   |      128403      |     144138
      10  | 32:01.64 |    3:21.72   |      144139      |     159285
      11  | 35:23.61 |    3:05.29   |      159286      |     173189
      12  | 38:29.15 |    4:36.11   |      173190      |     193900
      13  | 43:05.26 |    2:59.67   |      193901      |     207392
      14  | 46:05.18 |    3:27.66   |      207393      |     222983
      15  | 49:33.09 |    2:48.40   |      222984      |     235623

Характеристики диапазона извлечения и сообщения об ошибках

Выбранный диапазон

     Имя файла D:\BitComet\Paul McCartney - New (Deluxe edition)(2013)\Paul McCartney - New (Deluxe edition).wav

     Пиковый уровень 100.0 %
     Скорость извлечения 8.9 X
     Качество диапазона 100.0 %
     CRC теста 8C1D9D7E
     CRC копии 8C1D9D7E
     Копирование... OK

Ошибок не произошло

AccurateRip: сводка

Трек  1  отсутствует в базе данных
Трек  2  отсутствует в базе данных
Трек  3  отсутствует в базе данных
Трек  4  отсутствует в базе данных
Трек  5  отсутствует в базе данных
Трек  6  отсутствует в базе данных
Трек  7  отсутствует в базе данных
Трек  8  отсутствует в базе данных
Трек  9  отсутствует в базе данных
Трек 10  отсутствует в базе данных
Трек 11  отсутствует в базе данных
Трек 12  отсутствует в базе данных
Трек 13  отсутствует в базе данных
Трек 14  отсутствует в базе данных
Трек 15  отсутствует в базе данных

Ни одного трека нет в базе AccurateRip

Конец отчёта

==== Контрольная сумма отчёта AE41DDE52E0358FC62D86044D2B7DC8A4210819A540849610F35D868BDD58823 ====
Код:
Код:
-----------------------

DON'T MODIFY THIS FILE

-----------------------

PERFORMER: auCDtect Task Manager, ver. 1.6.0 RC1 build 1.6.0.1
Copyright (c) 2008-2010 y-soft. All rights reserved
http:/y-soft.org

ANALYZER: auCDtect: CD records authenticity detector, version 0.8.2
Copyright (c) 2004 Oleg Berngardt. All rights reserved.
Copyright (c) 2004 Alexander Djourik. All rights reserved.

FILE: Paul McCartney - New (Deluxe edition).flac
  Size: 383639803 Hash: E63B6F85738F2D0F274F332F1AD0DF87 Accuracy: -m0
  Conclusion: CDDA 100%
  Signature: 3382AB0FEF45A8011B9F8E45AE1A187A903ED68A
Правила, инструкции, FAQ!!!
Торрент  Добавлен [05 дек 2013, 10:38] Скачать торрент Магнет ссылка
Скачать торрент
[ Размер 20.87 КБ / Просмотров 44 ]

Статус  
 
Размер  461.24 МБ
Приватный: Нет (DHT включён)
.torrent скачан  1
 


     Отправить личное сообщение
   
Страница 1 из 1
Показать сообщения за:  Поле сортировки  
Начать новую тему Ответить на тему


Сейчас этот форум просматривают: нет зарегистрированных пользователей и гости: 0


Вы не можете начинать темы
Вы не можете отвечать на сообщения
Вы не можете редактировать свои сообщения
Вы не можете удалять свои сообщения
Вы не можете добавлять вложения

Перейти:  
cron