Начать новую тему Ответить на тему
Статистика раздачи
Размер: 3.59 ГБ | Добавлен: 16 мар 2014, 00:15 | Скачали: 0
Сидеров: 3  [0 байт/сек]    Личеров: 17  [0 байт/сек]
Пред. тема | След. тема 

Автор
Сообщение

СообщениеДобавлено: 16 мар 2014, 00:15 

Ответить с цитатой 


Paul & Linda McCartney - RAM (1971)

4 SHM-CD, Super Deluxe Edition, Remastered 2012


Год: 1971 / 2012
Жанр: Rock, Pop rock
Страна: England
Продолжительность: 02:56:22
Формат: SHM-CD, Super Deluxe Edition, Remastered
Количество дисков бокса: 4
Тип рипа: image + cue
Кодек: FLAC
Битрейт: Lossless
Страна-производитель: Japan
Издатель: MPL Communications / Hear Music / Concord Music Group / Universal Music
Номер по каталогу: UCCO-9993
Наличие сканов: scans + booklet
Источник: ALLexxess


Делюксовый бокс-сет с альбомом сэра Пола Маккартни
Ram 1971 года, выпущенный в 2012 году.

В это номерное издание вошли 4 CD и 1 DVD.


Первый CD – отремастированная версия альбома, второй – восемь-бонус треков периода записи Ram. На третьем диске – отремастированный моно-микс альбома, который вышел только на виниле, но не поступал в продажу. Четвертый диск - отремастированный инструментальный альбом Thrillington, выпущенный изначально под псевдонимом Percy ‘Thrills’ Thrillington. На DVD – редкие клипы и документальные съемки. Также в состав бокса вошли 112-страничная книга об альбоме, дополнительный 32-страничный буклет, пять фотографий, восемь копий оригинальных рукописных текстов песен, а также сборник фото, снятых в одно время с обложкой альбома.

Пластинка возглавила британские и канадские чарты, а также заняла 2-е место в американских. В США и Канаде диск по результатам продаж получил платиновый статус. Сингл с альбома - Uncle Albert/Admiral Halsey занял первое место в американском хит-параде.



#777Треклист:
01. Too Many People (4:11)
02. 3 Legs (2:48)
03. Ram On (2:31)
04. Dear Boy (2:15)
05. Uncle Albert / Admiral Halsey (4:55)
06. Smile Away (3:53)
07. Heart Of The Country (2:24)
08. Monkberry Moon Delight (5:26)
09. Eat At Home (3:23)
10. Long Haired Lady (6:05)
11. Ram On (0:55)
12. The Back Seat Of My Car (4:31)

Продолжительность: 00:43:18
Код:
Код:
Exact Audio Copy V1.0 beta 3 from 29. August 2011

EAC extraction logfile from 3. July 2012, 17:26

Paul & Linda McCartney / RAM CD1 Super Deluxe Edition

Used drive  : HL-DT-STDVDRAM GSA-H60N   Adapter: 2  ID: 0

Read mode               : Secure
Utilize accurate stream : Yes
Defeat audio cache      : Yes
Make use of C2 pointers : No

Read offset correction                      : 667
Overread into Lead-In and Lead-Out          : No
Fill up missing offset samples with silence : Yes
Delete leading and trailing silent blocks   : No
Null samples used in CRC calculations       : Yes
Used interface                              : Native Win32 interface for Win NT & 2000

Used output format : Internal WAV Routines
Sample format      : 44.100 Hz; 16 Bit; Stereo

TOC of the extracted CD

     Track |   Start  |  Length  | Start sector | End sector
    ---------------------------------------------------------
        1  |  0:00.00 |  4:10.50 |         0    |    18799
        2  |  4:10.50 |  2:47.65 |     18800    |    31389
        3  |  6:58.40 |  2:30.51 |     31390    |    42690
        4  |  9:29.16 |  2:15.31 |     42691    |    52846
        5  | 11:44.47 |  4:55.11 |     52847    |    74982
        6  | 16:39.58 |  3:53.19 |     74983    |    92476
        7  | 20:33.02 |  2:24.19 |     92477    |   103295
        8  | 22:57.21 |  5:25.51 |    103296    |   127721
        9  | 28:22.72 |  3:22.74 |    127722    |   142945
       10  | 31:45.71 |  6:05.18 |    142946    |   170338
       11  | 37:51.14 |  0:55.36 |    170339    |   174499
       12  | 38:46.50 |  4:30.70 |    174500    |   194819

Range status and errors

Selected range

     Filename C:\Documents and Settings\Admin\Рабочий стол\Lossless Galaxy Rip by ALLexxess\Paul McCartney\1971 RAM (3 SHM-CD + 1 DVD Box Set Universal Music Japan 2012)\CD1\Paul & Linda McCartney - RAM CD1 Super Deluxe Edition.wav

     Peak level 100.0 %
     Extraction speed 5.6 X
     Range quality 99.9 %
     Test CRC D863079D
     Copy CRC D863079D
     Copy OK

No errors occurred

AccurateRip summary

Track  1  accurately ripped (confidence 3)  [77E7EC33]  (AR v2)
Track  2  accurately ripped (confidence 3)  [BCD9C218]  (AR v2)
Track  3  accurately ripped (confidence 3)  [42E193F4]  (AR v2)
Track  4  accurately ripped (confidence 3)  [0F0D0DDD]  (AR v2)
Track  5  accurately ripped (confidence 3)  [127C4EB3]  (AR v2)
Track  6  accurately ripped (confidence 3)  [163CEC36]  (AR v2)
Track  7  accurately ripped (confidence 3)  [92CF48C4]  (AR v2)
Track  8  accurately ripped (confidence 3)  [525AD451]  (AR v2)
Track  9  accurately ripped (confidence 3)  [E4F62149]  (AR v2)
Track 10  accurately ripped (confidence 3)  [9C7E04CC]  (AR v2)
Track 11  accurately ripped (confidence 3)  [50E326BB]  (AR v2)
Track 12  accurately ripped (confidence 3)  [26B6F75E]  (AR v2)

All tracks accurately ripped

End of status report

==== Log checksum 0946F44089F0DB3DA90A7443733A512314BD47643AA697D8938FD327B67E5C5A ====
Код:
Код:
-----------------------

DON'T MODIFY THIS FILE

-----------------------

PERFORMER: auCDtect Task Manager, ver. 1.5.1RC3 build 1.5.1.4
Copyright (c) 2008-2010 y-soft. All rights reserved
http:/y-soft.org

ANALYZER: auCDtect: CD records authenticity detector, version 0.8.2
Copyright (c) 2004 Oleg Berngardt. All rights reserved.
Copyright (c) 2004 Alexander Djourik. All rights reserved.

FILE: RAM CD1 Super Deluxe Edition.flac
  Size: 295947830 Hash: C433525E1840ACDB219CD581EECB6715 Accuracy: -m8
  Conclusion: CDDA 100%
  Signature: 9E3D4525550815F600D9E4D19BBC0892551872C9
FILE: RAM CD1 Super Deluxe Edition.wav
  Size: 458216684 Hash: C433525E1840ACDB219CD581EECB6715 Accuracy: -m8
  Conclusion: CDDA 100%
  Signature: AB672CD69F6A58963501AB0C34CA156FD8208D16
#777Треклист:
01. Another Day (3:43)
02. Oh Woman, Oh Why (4:36)
03. Little Woman Love (2:09)
04. A Love For You (4:08)
05. Hey Diddle (3:49)
06. Great Cock And Seagull Race (2:36)
07. Rode All Night (8:45)
08. Sunshine Sometime (3:23)

Продолжительность: 00:44:38
Код:
Код:
Exact Audio Copy V1.0 beta 3 from 29. August 2011

EAC extraction logfile from 3. July 2012, 19:49

Paul & Linda McCartney / RAM CD2 Super Deluxe Edition

Used drive  : HL-DT-STDVDRAM GSA-H60N   Adapter: 2  ID: 0

Read mode               : Secure
Utilize accurate stream : Yes
Defeat audio cache      : Yes
Make use of C2 pointers : No

Read offset correction                      : 667
Overread into Lead-In and Lead-Out          : No
Fill up missing offset samples with silence : Yes
Delete leading and trailing silent blocks   : No
Null samples used in CRC calculations       : Yes
Used interface                              : Native Win32 interface for Win NT & 2000

Used output format : Internal WAV Routines
Sample format      : 44.100 Hz; 16 Bit; Stereo

TOC of the extracted CD

     Track |   Start  |  Length  | Start sector | End sector
    ---------------------------------------------------------
        1  |  0:00.00 |  3:43.27 |         0    |    16751
        2  |  3:43.27 |  4:35.48 |     16752    |    37424
        3  |  8:19.00 |  2:08.54 |     37425    |    47078
        4  | 10:27.54 |  4:08.33 |     47079    |    65711
        5  | 14:36.12 |  3:49.35 |     65712    |    82921
        6  | 18:25.47 |  2:35.50 |     82922    |    94596
        7  | 21:01.22 |  8:45.24 |     94597    |   133995
        8  | 29:46.46 |  3:22.13 |    133996    |   149158

Range status and errors

Selected range

     Filename C:\Documents and Settings\Admin\Рабочий стол\Lossless Galaxy Rip by ALLexxess\Paul McCartney\1971 RAM (3 SHM-CD + 1 DVD Box Set Universal Music Japan 2012)\CD2\Paul & Linda McCartney - RAM CD2 Super Deluxe Edition.wav

     Peak level 99.4 %
     Extraction speed 5.4 X
     Range quality 100.0 %
     Test CRC 62B1769D
     Copy CRC 62B1769D
     Copy OK

No errors occurred

AccurateRip summary

Track  1  accurately ripped (confidence 3)  [F031086F]  (AR v2)
Track  2  accurately ripped (confidence 3)  [3FADCC4B]  (AR v2)
Track  3  accurately ripped (confidence 3)  [BD8C3365]  (AR v2)
Track  4  accurately ripped (confidence 3)  [E4D18D45]  (AR v2)
Track  5  accurately ripped (confidence 3)  [A3038FB3]  (AR v2)
Track  6  accurately ripped (confidence 3)  [D6D316F3]  (AR v2)
Track  7  accurately ripped (confidence 3)  [81A9AF28]  (AR v2)
Track  8  accurately ripped (confidence 3)  [F9A98BCA]  (AR v2)

All tracks accurately ripped

End of status report

==== Log checksum 7B9026EE61483FD122CDB975B27A5ABBFAC6398BBCDBAD4503CA1ED7E0175C4A ====
Код:
Код:
-----------------------

DON'T MODIFY THIS FILE

-----------------------

PERFORMER: auCDtect Task Manager, ver. 1.5.1RC3 build 1.5.1.4
Copyright (c) 2008-2010 y-soft. All rights reserved
http:/y-soft.org

ANALYZER: auCDtect: CD records authenticity detector, version 0.8.2
Copyright (c) 2004 Oleg Berngardt. All rights reserved.
Copyright (c) 2004 Alexander Djourik. All rights reserved.

FILE: RAM CD2 Super Deluxe Edition.flac
  Size: 210510303 Hash: 62BE04DFA54EBFFA1292C1B4D8D5B5F7 Accuracy: -m8
  Conclusion: CDDA 100%
  Signature: 973CC9CF46E4197EA469270476C894029939CDC4
FILE: RAM CD2 Super Deluxe Edition.wav
  Size: 350822012 Hash: 62BE04DFA54EBFFA1292C1B4D8D5B5F7 Accuracy: -m8
  Conclusion: CDDA 100%
  Signature: 67B9230C7748A235EA6477994C1ECC50A2A2209F
#777Треклист:
01. Too Many People (4:17)
02. 3 Legs (2:50)
03. Ram On (2:30)
04. Dear Boy (2:16)
05. Uncle Albert / Admiral Halsey (4:55)
06. Smile Away (3:56)
07. Heart Of The Country (2:23)
08. Monkberry Moon Delight (5:26)
09. Eat At Home (3:24)
10. Long Haired Lady (6:05)
11. Ram On (0:53)
12. The Back Seat Of My Car (4:31)

Продолжительность: 00:43:25
Код:
Код:
Exact Audio Copy V1.0 beta 3 from 29. August 2011

EAC extraction logfile from 3. July 2012, 20:21

Paul & Linda McCartney / RAM CD3 Super Deluxe Edition

Used drive  : HL-DT-STDVDRAM GSA-H60N   Adapter: 2  ID: 0

Read mode               : Secure
Utilize accurate stream : Yes
Defeat audio cache      : Yes
Make use of C2 pointers : No

Read offset correction                      : 667
Overread into Lead-In and Lead-Out          : No
Fill up missing offset samples with silence : Yes
Delete leading and trailing silent blocks   : No
Null samples used in CRC calculations       : Yes
Used interface                              : Native Win32 interface for Win NT & 2000

Used output format : Internal WAV Routines
Sample format      : 44.100 Hz; 16 Bit; Stereo

TOC of the extracted CD

     Track |   Start  |  Length  | Start sector | End sector
    ---------------------------------------------------------
        1  |  0:00.00 |  4:17.31 |         0    |    19305
        2  |  4:17.31 |  2:49.40 |     19306    |    32020
        3  |  7:06.71 |  2:29.72 |     32021    |    43267
        4  |  9:36.68 |  2:15.48 |     43268    |    53440
        5  | 11:52.41 |  4:54.62 |     53441    |    75552
        6  | 16:47.28 |  3:55.64 |     75553    |    93241
        7  | 20:43.17 |  2:23.32 |     93242    |   103998
        8  | 23:06.49 |  5:26.25 |    103999    |   128473
        9  | 28:32.74 |  3:23.52 |    128474    |   143750
       10  | 31:56.51 |  6:04.71 |    143751    |   171121
       11  | 38:01.47 |  0:52.47 |    171122    |   175068
       12  | 38:54.19 |  4:30.09 |    175069    |   195327

Range status and errors

Selected range

     Filename C:\Documents and Settings\Admin\Рабочий стол\Lossless Galaxy Rip by ALLexxess\Paul McCartney\1971 RAM (3 SHM-CD + 1 DVD Box Set Universal Music Japan 2012)\CD3\Paul & Linda McCartney - RAM CD3 Super Deluxe Edition.wav

     Peak level 99.4 %
     Extraction speed 5.7 X
     Range quality 100.0 %
     Test CRC 08955A87
     Copy CRC 08955A87
     Copy OK

No errors occurred

AccurateRip summary

Track  1  accurately ripped (confidence 2)  [6A8104B2]  (AR v2)
Track  2  accurately ripped (confidence 2)  [60824945]  (AR v2)
Track  3  accurately ripped (confidence 2)  [347BB705]  (AR v2)
Track  4  accurately ripped (confidence 2)  [5E76B856]  (AR v2)
Track  5  accurately ripped (confidence 2)  [FB60A148]  (AR v2)
Track  6  accurately ripped (confidence 2)  [339EC1A0]  (AR v2)
Track  7  accurately ripped (confidence 2)  [47940116]  (AR v2)
Track  8  accurately ripped (confidence 2)  [03D90C02]  (AR v2)
Track  9  accurately ripped (confidence 2)  [F7ED5A3C]  (AR v2)
Track 10  accurately ripped (confidence 2)  [82F183F7]  (AR v2)
Track 11  accurately ripped (confidence 2)  [8946D160]  (AR v2)
Track 12  accurately ripped (confidence 2)  [F3B09EC2]  (AR v2)

All tracks accurately ripped

End of status report

==== Log checksum EE38BFC255654EDE0B4164B3A8876B15E0AFB20210A9C7887745BA42036D9168 ====
Код:
Код:
-----------------------

DON'T MODIFY THIS FILE

-----------------------

PERFORMER: auCDtect Task Manager, ver. 1.5.1RC3 build 1.5.1.4
Copyright (c) 2008-2010 y-soft. All rights reserved
http:/y-soft.org

ANALYZER: auCDtect: CD records authenticity detector, version 0.8.2
Copyright (c) 2004 Oleg Berngardt. All rights reserved.
Copyright (c) 2004 Alexander Djourik. All rights reserved.

FILE: RAM CD3 Super Deluxe Edition.flac
  Size: 151016861 Hash: CD9E359693B6DB03BAF0D120EC6C6ADC Accuracy: -m8
  Conclusion: CDDA 100%
  Signature: E68082784E8D803BDA7FCA09DA0573B681903BFC
FILE: RAM CD3 Super Deluxe Edition.wav
  Size: 459411500 Hash: CD9E359693B6DB03BAF0D120EC6C6ADC Accuracy: -m8
  Conclusion: CDDA 100%
  Signature: 05BBD24AE7AD86B3F315FFF13FD7880A8A5BFD32
#777Треклист:
01. Too Many People (4:33)
02. 3 Legs (3:42)
03. Ram On (2:52)
04. Dear Boy (2:51)
05. Uncle Albert / Admiral Halsey (4:58)
06. Smile Away (4:41)
07. Heart Of The Country (2:27)
08. Monkberry Moon Delight (4:39)
09. Eat At Home (3:31)
10. Long Haired Lady (5:50)
11. Back Seat Of My Car (4:56)

Продолжительность: 00:45:01
Код:
Код:
Exact Audio Copy V1.0 beta 3 from 29. August 2011

EAC extraction logfile from 3. July 2012, 20:59

Paul & Linda McCartney / RAM CD4 Super Deluxe Edition

Used drive  : HL-DT-STDVDRAM GSA-H60N   Adapter: 2  ID: 0

Read mode               : Secure
Utilize accurate stream : Yes
Defeat audio cache      : Yes
Make use of C2 pointers : No

Read offset correction                      : 667
Overread into Lead-In and Lead-Out          : No
Fill up missing offset samples with silence : Yes
Delete leading and trailing silent blocks   : No
Null samples used in CRC calculations       : Yes
Used interface                              : Native Win32 interface for Win NT & 2000

Used output format : Internal WAV Routines
Sample format      : 44.100 Hz; 16 Bit; Stereo

TOC of the extracted CD

     Track |   Start  |  Length  | Start sector | End sector
    ---------------------------------------------------------
        1  |  0:00.00 |  4:32.67 |         0    |    20466
        2  |  4:32.67 |  3:41.71 |     20467    |    37112
        3  |  8:14.63 |  2:52.30 |     37113    |    50042
        4  | 11:07.18 |  2:51.31 |     50043    |    62898
        5  | 13:58.49 |  4:58.27 |     62899    |    85275
        6  | 18:57.01 |  4:41.31 |     85276    |   106381
        7  | 23:38.32 |  2:27.02 |    106382    |   117408
        8  | 26:05.34 |  4:39.23 |    117409    |   138356
        9  | 30:44.57 |  3:30.43 |    138357    |   154149
       10  | 34:15.25 |  5:49.58 |    154150    |   180382
       11  | 40:05.08 |  4:54.26 |    180383    |   202458

Range status and errors

Selected range

     Filename C:\Documents and Settings\Admin\Рабочий стол\Lossless Galaxy Rip by ALLexxess\Paul McCartney\1971 RAM (3 SHM-CD + 1 DVD Box Set Universal Music Japan 2012)\CD4\Paul & Linda McCartney - RAM CD4 Super Deluxe Edition.wav

     Peak level 100.0 %
     Extraction speed 5.8 X
     Range quality 100.0 %
     Test CRC 286DE0EC
     Copy CRC 286DE0EC
     Copy OK

No errors occurred

AccurateRip summary

Track  1  accurately ripped (confidence 2)  [11BDC14A]  (AR v2)
Track  2  accurately ripped (confidence 2)  [2B306A3D]  (AR v2)
Track  3  accurately ripped (confidence 2)  [09D384BB]  (AR v2)
Track  4  accurately ripped (confidence 2)  [9F8AC79F]  (AR v2)
Track  5  accurately ripped (confidence 2)  [7A9E274B]  (AR v2)
Track  6  accurately ripped (confidence 2)  [933DC607]  (AR v2)
Track  7  accurately ripped (confidence 2)  [8163A450]  (AR v2)
Track  8  accurately ripped (confidence 2)  [C8569BAC]  (AR v2)
Track  9  accurately ripped (confidence 2)  [795C2F78]  (AR v2)
Track 10  accurately ripped (confidence 2)  [6A4C8CD6]  (AR v2)
Track 11  accurately ripped (confidence 2)  [47BA42D4]  (AR v2)

All tracks accurately ripped

End of status report

==== Log checksum FC852D459967589C6315BB31ECC0430AB8910C372188E7D0AA8BA3371C2E2645 ====
Код:
Код:
-----------------------

DON'T MODIFY THIS FILE

-----------------------

PERFORMER: auCDtect Task Manager, ver. 1.5.1RC3 build 1.5.1.4
Copyright (c) 2008-2010 y-soft. All rights reserved
http:/y-soft.org

ANALYZER: auCDtect: CD records authenticity detector, version 0.8.2
Copyright (c) 2004 Oleg Berngardt. All rights reserved.
Copyright (c) 2004 Alexander Djourik. All rights reserved.

FILE: RAM CD4 Super Deluxe Edition.flac
  Size: 296691923 Hash: 9FA856262A5FE88C03873E4CBAAA9967 Accuracy: -m8
  Conclusion: CDDA 99%
  Signature: 225978AD04055DB834945BFA9B0FA0C99D804122
FILE: RAM CD4 Super Deluxe Edition.wav
  Size: 476183612 Hash: 9FA856262A5FE88C03873E4CBAAA9967 Accuracy: -m8
  Conclusion: CDDA 99%
  Signature: 1657A79F687F016479904D6917D344676394CCA3
Правила, инструкции, FAQ!!!
Торрент  Добавлен [16 мар 2014, 00:15] Скачать торрент Магнет ссылка
Скачать торрент
[ Размер 46 КБ / Просмотров 153 ]

Статус  
 
Размер  3.59 ГБ
Приватный: Нет (DHT включён)
.torrent скачан  0
 


     Отправить личное сообщение
   
Страница 1 из 1
Показать сообщения за:  Поле сортировки  
Начать новую тему Ответить на тему


Сейчас этот форум просматривают: нет зарегистрированных пользователей и гости: 0


Вы не можете начинать темы
Вы не можете отвечать на сообщения
Вы не можете редактировать свои сообщения
Вы не можете удалять свои сообщения
Вы не можете добавлять вложения

Перейти:  
cron
cron