Начать новую тему Ответить на тему
Статистика раздачи
Размер: 424.88 МБ | Добавлен: 16 мар 2014, 00:37 | Скачали: 2
Сидеров: 1  [0 байт/сек]    Личеров: 1  [0 байт/сек]
Пред. тема | След. тема 

Автор
Сообщение

СообщениеДобавлено: 16 мар 2014, 00:37 

Ответить с цитатой 

Paramore - Paramore (2013)

Год: 2013
Жанр: Alternative Rock
Продолжительность: 01:03:57

Кодек: FLAC (tracks+.cue)
Битрейт: Lossless

Треклист:
01. Fast In My Car (3:43)
02. Now (4:07)
03. Grow Up (3:51)
04. Day Dreaming (4:31)
05. Moving On (Interlude) (1:30)
06. Aint It Fun (4:57)
07. Part II (4:41)
08. Last Hope (5:10)
09. Still Into You (3:36)
10. Ankle Biters (2:18)
11. Holiday (Interlude) (1:10)
12. Proof (3:15)
13. Hate To See Your Heart Break (5:09)
14. (One Of Those) Crazy Girls (3:33)
15. Im Not Angry Anymore (Interlude) (0:53)
16. Be Alone (3:40)
17. Future (7:53)
Код:
Код:
Exact Audio Copy V1.0 beta 3 from 29. August 2011

EAC extraction logfile from 5. April 2013, 16:28

Paramore / Paramore

Used drive  : HL-DT-STDVD+-RW GA31N   Adapter: 1  ID: 0

Read mode               : Secure
Utilize accurate stream : Yes
Defeat audio cache      : Yes
Make use of C2 pointers : No

Read offset correction                      : 103
Overread into Lead-In and Lead-Out          : No
Fill up missing offset samples with silence : Yes
Delete leading and trailing silent blocks   : No
Null samples used in CRC calculations       : Yes
Used interface                              : Native Win32 interface for Win NT & 2000
Gap handling                                : Appended to previous track

Used output format              : User Defined Encoder
Selected bitrate                : 1024 kBit/s
Quality                         : High
Add ID3 tag                     : No
Command line compressor         : C:\Program Files (x86)\Exact Audio Copy\FLAC\FLAC.EXE
Additional command line options : -8 -V -T "ARTIST=%artist%" -T "TITLE=%title%" -T "ALBUM=%albumtitle%" -T "DATE=%year%" -T "TRACKNUMBER=%tracknr%" -T "GENRE=%genre%" -T "PERFORMER=%albuminterpret%" -T "COMPOSER=%composer%" %haslyrics%--tag-from-file=LYRICS="%lyricsfile%"%haslyrics% -T "ALBUMARTIST=%albumartist%" -T "DISCNUMBER=%cdnumber%" -T "TOTALDISCS=%totalcds%" -T "TOTALTRACKS=%numtracks%" -T "COMMENT=%comment%" %source% -o %dest%

TOC of the extracted CD

     Track |   Start  |  Length  | Start sector | End sector
    ---------------------------------------------------------
        1  |  0:00.00 |  3:42.52 |         0    |    16701
        2  |  3:42.52 |  4:07.31 |     16702    |    35257
        3  |  7:50.08 |  3:50.68 |     35258    |    52575
        4  | 11:41.01 |  4:31.02 |     52576    |    72902
        5  | 16:12.03 |  1:30.24 |     72903    |    79676
        6  | 17:42.27 |  4:56.39 |     79677    |   101915
        7  | 22:38.66 |  4:41.18 |    101916    |   123008
        8  | 27:20.09 |  5:09.73 |    123009    |   146256
        9  | 32:30.07 |  3:36.01 |    146257    |   162457
       10  | 36:06.08 |  2:17.70 |    162458    |   172802
       11  | 38:24.03 |  1:09.51 |    172803    |   178028
       12  | 39:33.54 |  3:15.29 |    178029    |   192682
       13  | 42:49.08 |  5:09.22 |    192683    |   215879
       14  | 47:58.30 |  3:32.42 |    215880    |   231821
       15  | 51:30.72 |  0:52.45 |    231822    |   235766
       16  | 52:23.42 |  3:40.06 |    235767    |   252272
       17  | 56:03.48 |  7:52.70 |    252273    |   287742

Track  1

     Filename C:\Users\Kirblinx\Downloads\Lappy Downloads\Paramore - Paramore [FLAC]\01 - Fast In My Car.wav

     Pre-gap length  0:00:02.00

     Peak level 100.0 %
     Extraction speed 1.2 X
     Track quality 100.0 %
     Test CRC 7508792E
     Copy CRC 7508792E
     Track not present in AccurateRip database
     Copy OK

Track  2

     Filename C:\Users\Kirblinx\Downloads\Lappy Downloads\Paramore - Paramore [FLAC]\02 - Now.wav

     Peak level 100.0 %
     Extraction speed 1.4 X
     Track quality 100.0 %
     Test CRC DF86A9E3
     Copy CRC DF86A9E3
     Track not present in AccurateRip database
     Copy OK

Track  3

     Filename C:\Users\Kirblinx\Downloads\Lappy Downloads\Paramore - Paramore [FLAC]\03 - Grow Up.wav

     Peak level 100.0 %
     Extraction speed 1.5 X
     Track quality 100.0 %
     Test CRC 33B8490D
     Copy CRC 33B8490D
     Track not present in AccurateRip database
     Copy OK

Track  4

     Filename C:\Users\Kirblinx\Downloads\Lappy Downloads\Paramore - Paramore [FLAC]\04 - Daydreaming.wav

     Peak level 100.0 %
     Extraction speed 1.6 X
     Track quality 100.0 %
     Test CRC F0FC27D1
     Copy CRC F0FC27D1
     Track not present in AccurateRip database
     Copy OK

Track  5

     Filename C:\Users\Kirblinx\Downloads\Lappy Downloads\Paramore - Paramore [FLAC]\05 - Interlude- Moving On.wav

     Peak level 53.5 %
     Extraction speed 1.0 X
     Track quality 99.8 %
     Test CRC 3D031369
     Copy CRC 3D031369
     Track not present in AccurateRip database
     Copy OK

Track  6

     Filename C:\Users\Kirblinx\Downloads\Lappy Downloads\Paramore - Paramore [FLAC]\06 - Ain't It Fun.wav

     Peak level 100.0 %
     Extraction speed 1.8 X
     Track quality 100.0 %
     Test CRC 82118ED7
     Copy CRC 82118ED7
     Track not present in AccurateRip database
     Copy OK

Track  7

     Filename C:\Users\Kirblinx\Downloads\Lappy Downloads\Paramore - Paramore [FLAC]\07 - Part II.wav

     Peak level 99.0 %
     Extraction speed 1.9 X
     Track quality 100.0 %
     Test CRC 570A0D1F
     Copy CRC 570A0D1F
     Track not present in AccurateRip database
     Copy OK

Track  8

     Filename C:\Users\Kirblinx\Downloads\Lappy Downloads\Paramore - Paramore [FLAC]\08 - Last Hope.wav

     Peak level 100.0 %
     Extraction speed 2.0 X
     Track quality 100.0 %
     Test CRC 84252B66
     Copy CRC 84252B66
     Track not present in AccurateRip database
     Copy OK

Track  9

     Filename C:\Users\Kirblinx\Downloads\Lappy Downloads\Paramore - Paramore [FLAC]\09 - Still Into You.wav

     Peak level 100.0 %
     Extraction speed 2.0 X
     Track quality 100.0 %
     Test CRC 4CBB53E8
     Copy CRC 4CBB53E8
     Track not present in AccurateRip database
     Copy OK

Track 10

     Filename C:\Users\Kirblinx\Downloads\Lappy Downloads\Paramore - Paramore [FLAC]\10 - Ankle Biters.wav

     Peak level 99.8 %
     Extraction speed 1.9 X
     Track quality 100.0 %
     Test CRC 55BDE5E2
     Copy CRC 55BDE5E2
     Track not present in AccurateRip database
     Copy OK

Track 11

     Filename C:\Users\Kirblinx\Downloads\Lappy Downloads\Paramore - Paramore [FLAC]\11 - Interlude- Holiday.wav

     Peak level 52.4 %
     Extraction speed 1.1 X
     Track quality 99.8 %
     Test CRC 234B14B0
     Copy CRC 234B14B0
     Track not present in AccurateRip database
     Copy OK

Track 12

     Filename C:\Users\Kirblinx\Downloads\Lappy Downloads\Paramore - Paramore [FLAC]\12 - Proof.wav

     Peak level 100.0 %
     Extraction speed 2.1 X
     Track quality 100.0 %
     Test CRC B94F3451
     Copy CRC B94F3451
     Track not present in AccurateRip database
     Copy OK

Track 13

     Filename C:\Users\Kirblinx\Downloads\Lappy Downloads\Paramore - Paramore [FLAC]\13 - Hate To See Your Heart Break.wav

     Peak level 99.0 %
     Extraction speed 2.3 X
     Track quality 100.0 %
     Test CRC 86E02513
     Copy CRC 86E02513
     Track not present in AccurateRip database
     Copy OK

Track 14

     Filename C:\Users\Kirblinx\Downloads\Lappy Downloads\Paramore - Paramore [FLAC]\14 - (One Of Those) Crazy Girls.wav

     Peak level 100.0 %
     Extraction speed 2.3 X
     Track quality 100.0 %
     Test CRC 9433560C
     Copy CRC 9433560C
     Track not present in AccurateRip database
     Copy OK

Track 15

     Filename C:\Users\Kirblinx\Downloads\Lappy Downloads\Paramore - Paramore [FLAC]\15 - Interlude- I'm Not Angry Anymore.wav

     Peak level 66.8 %
     Extraction speed 1.5 X
     Track quality 100.0 %
     Test CRC 3E65A22E
     Copy CRC 3E65A22E
     Track not present in AccurateRip database
     Copy OK

Track 16

     Filename C:\Users\Kirblinx\Downloads\Lappy Downloads\Paramore - Paramore [FLAC]\16 - Be Alone.wav

     Peak level 100.0 %
     Extraction speed 2.0 X
     Track quality 99.9 %
     Test CRC 16AD6902
     Copy CRC 16AD6902
     Track not present in AccurateRip database
     Copy OK

Track 17

     Filename C:\Users\Kirblinx\Downloads\Lappy Downloads\Paramore - Paramore [FLAC]\17 - Future.wav

     Peak level 99.9 %
     Extraction speed 2.7 X
     Track quality 100.0 %
     Test CRC FD8332C8
     Copy CRC FD8332C8
     Track not present in AccurateRip database
     Copy OK

None of the tracks are present in the AccurateRip database

No errors occurred

End of status report

==== Log checksum 9D4C4BFF035237CAEFFA83666352F305179C93C217F9DAF602E594BA1FF33145 ====
Код:
Код:
-----------------------

DON'T MODIFY THIS FILE

-----------------------

PERFORMER: auCDtect Task Manager, ver. 1.5.1RC6 build 1.5.1.7
Copyright (c) 2008-2010 y-soft. All rights reserved
http:/y-soft.org

ANALYZER: auCDtect: CD records authenticity detector, version 0.8.2
Copyright (c) 2004 Oleg Berngardt. All rights reserved.
Copyright (c) 2004 Alexander Djourik. All rights reserved.

FILE: 17 - Future.flac
  Size: 46724675 Hash: 61B834732628799E82EBC072CF148D27 Accuracy: -m0
  Conclusion: CDDA 100%
  Signature: B37E67C23E4D1B6EA15C2940EDB2B0C99BB1AA73
FILE: 16 - Be Alone.flac
  Size: 27810565 Hash: 6642D6BF9BDC10C57BB8388066C8B920 Accuracy: -m0
  Conclusion: CDDA 100%
  Signature: BBE75D8D7C1B942AF17F31D49D82410D8680CD34
FILE: 15 - Interlude- I'm Not Angry Anymore.flac
  Size: 3290314 Hash: D5F49092FE886066CEF5F70E1FB51B82 Accuracy: -m0
  Conclusion: CDDA 100%
  Signature: A8D6533EF9C7A9CE407CF7FAA51131DA2EDEB572
FILE: 14 - (One Of Those) Crazy Girls.flac
  Size: 25016908 Hash: 75E68BCE3B93C50520901001E8B079C9 Accuracy: -m0
  Conclusion: CDDA 100%
  Signature: 0F1E87B9BAFFC8118FFC9C0F8FE4D159CFD8A2EC
FILE: 13 - Hate To See Your Heart Break.flac
  Size: 34075951 Hash: FE9AD7B05618F9FC055DBD43DA2AEE42 Accuracy: -m0
  Conclusion: CDDA 100%
  Signature: CB4B2FBADEDDC1C5AF2382FE89DEA31BEEEB3266
FILE: 12 - Proof.flac
  Size: 24536910 Hash: C3D709ED1A5AFB4DF7F84B3A2578B6F6 Accuracy: -m0
  Conclusion: CDDA 100%
  Signature: 16DEA0E1CB6B34EF9B2B304B82D83954181A4D1D
FILE: 11 - Interlude- Holiday.flac
  Size: 4115541 Hash: D9204CBAB2C9D0F8432167A7DC2FE6C8 Accuracy: -m0
  Conclusion: CDDA 100%
  Signature: BA940A3790809B04E1339BC9C5C2407477080011
FILE: 10 - Ankle Biters.flac
  Size: 18344995 Hash: 83E99FE48A20ED01400D8F36D90A18F7 Accuracy: -m0
  Conclusion: CDDA 100%
  Signature: A55B93F13027A03BDC8945491E84C51F8C33CBE0
FILE: 09 - Still Into You.flac
  Size: 27625039 Hash: 9D04918E3B700A95E51BE3A82BA0F744 Accuracy: -m0
  Conclusion: CDDA 100%
  Signature: DEF911C099B7CB18546E6977E91185EDE0930D0E
FILE: 08 - Last Hope.flac
  Size: 32707663 Hash: 1BE8062CCB6D1B65B4436D39A436F7F1 Accuracy: -m0
  Conclusion: CDDA 100%
  Signature: 4A7811293D5CB7E1BD37C9EB7E6F78F1F39264C9
FILE: 07 - Part II.flac
  Size: 33114700 Hash: 36DFB162A7836F9680F9A2D05C9369E1 Accuracy: -m0
  Conclusion: CDDA 100%
  Signature: EC1A5BF228146312CBD15AC96CD679D9814FA836
FILE: 06 - Ain't It Fun.flac
  Size: 37763610 Hash: 2CD594214D3FE9299B6F58D4D00F35F8 Accuracy: -m0
  Conclusion: CDDA 100%
  Signature: 99165A1782B0C6C22CB5853F337E157E1EFA526C
FILE: 05 - Interlude- Moving On.flac
  Size: 6123441 Hash: 116B7D8ADACD227036F685E96B5D64D7 Accuracy: -m0
  Conclusion: CDDA 100%
  Signature: BA20C4745E10483A1886BD9D7CE15A0B9877E97D
FILE: 04 - Daydreaming.flac
  Size: 32400468 Hash: BE4012B86C60C794399ACCECA36B7817 Accuracy: -m0
  Conclusion: CDDA 100%
  Signature: E5AAE54648E4C32A4335D7267CD8A2E606B0E783
FILE: 03 - Grow Up.flac
  Size: 29837199 Hash: F3B85D500DD21008D5E44084194BE113 Accuracy: -m0
  Conclusion: CDDA 100%
  Signature: 7A2A80C3E5CD63C6B4523CC8AF9352F82CA512DC
FILE: 02 - Now.flac
  Size: 32156599 Hash: DB79E837AE483705EEF5DEBEBFDEB790 Accuracy: -m0
  Conclusion: CDDA 99%
  Signature: B8AEB9E86FDC850184B131FDF134BDA23ED969E7
FILE: 01 - Fast In My Car.flac
  Size: 29782278 Hash: 9B95333ABFBA61760B060FE04A1E8A04 Accuracy: -m0
  Conclusion: CDDA 100%
  Signature: 9F151D5C35743D3540166906794FF1314C806D84
"Альбом - отображение тех, кем мы были и кем стали за последние два года. В нём много песен о взрослении, об уходе от чего-то сложного, о простом движении вперёд. В музыкальном плане, мы попробовали всё - различные звуки, жанры, исследовали новые территории. Что круто - мы не чувствовали давления. Кажется, что музыка повсюду. Мне кажется, что я сама повсюду. Так что, может, это просто хорошая обновлённая версия меня и ребят"(интервью Хэйли, данное сайту elle )
Cостав группы :
Хейли Уильямс (Hayley Williams) — вокал/клавишные
Джереми Дэвис (Jeremy Davis) — бас-гитара
Тейлор Йорк (Taylor York) — ритм-гитара, перкуссия, металлофон
Илан Рубин (Ilan Rubin) — ударные (сессионный участник).
Правила, инструкции, FAQ!!!
Торрент  Добавлен [16 мар 2014, 00:37] Скачать торрент Магнет ссылка
Скачать торрент
[ Размер 18.43 КБ / Просмотров 132 ]

Статус  
 
Размер  424.88 МБ
Приватный: Нет (DHT включён)
.torrent скачан  2
 


     Отправить личное сообщение
   
Страница 1 из 1
Показать сообщения за:  Поле сортировки  
Начать новую тему Ответить на тему


Сейчас этот форум просматривают: нет зарегистрированных пользователей и гости: 0


Вы не можете начинать темы
Вы не можете отвечать на сообщения
Вы не можете редактировать свои сообщения
Вы не можете удалять свои сообщения
Вы не можете добавлять вложения

Перейти:  
cron