Начать новую тему Ответить на тему
Статистика раздачи
Размер: 3.69 ГБ | Добавлен: 16 мар 2014, 00:55 | Скачали: 0
Сидеров: 3  [0 байт/сек]    Личеров: 0  [0 байт/сек]
Пред. тема | След. тема 

Автор
Сообщение

СообщениеДобавлено: 16 мар 2014, 00:55 

Ответить с цитатой 

Paramore - 9 Albums + 16 Singles & EPs (2005-2009)



Год: 2005-2009
Страна: USA
Жанр: Alternative/Pop-Punk/Female Vocal
Продолжительность: 08:53:48

Кодек: FLAC
Битрейт: Lossless

Albums:
Прoдолжительность: 00:35:51

Треклист:All We Know
Pressure
Emergency
Brighter
Here We Go Again
Never Let This Go
Whoa
Conspiracy
Franklin
My Heart
Код:
Код:
Отчёт EAC об извлечении, выполненном 8. марта 2007, 16:00 для диска:
Paramore / All We Know Is Falling

Дисковод: PLEXTOR DVDR   PX-750A   Adapter: 0  ID: 0
Режим чтения: Достоверный (C2: нет, Точный поток: да, Отключение кэша: да)
Комбинированное смещение чтения/записи: 102
Способность читать области Lead-in и Lead-out : Нет

Выходной формат: Внутренние WAV-операции
                     44.100 Гц; 16 бит; стерео

Другие параметры:
    Заполнение пропущенных сэмплов тишиной : Да
    Удаление блоков с тишиной в начале и конце : Нет
    Встроенный Win32-интерфейс для Win NT/2000

Характеристики диапазона извлечения и сообщения об ошибках
Выбранный диапазон
     Имя файла C:\Documents and Settings\Admin\Мои документы\Моя музыка\Paramore - All We Know Is Falling.wav

     Пиковый уровень 96.6 %
     Качество диапазона 100.0 %
     CRC 4535AF7C
     Копирование... OK

Ошибок не произошло

Конец отчёта
Код:
Код:
AUDIOCHECKER v2.0 beta (build 457) - by Dester -
~~~~~~~~~~~~~~~~~~~~~~~~~~~~~~~~~~
-=== НЕ РЕДАКТИРУЙТЕ ЭТОТ ФАЙЛ! ===-

Путь: ...\2005 - All We Know Is Falling

001 -=- 01 - All We Know.flac -=- CDDA (100%)
002 -=- 02 - Pressure.flac -=- CDDA (100%)
003 -=- 03 - Emergency.flac -=- CDDA (100%)
004 -=- 04 - Brighter.flac -=- CDDA (100%)
005 -=- 05 - Here We Go Again.flac -=- CDDA (100%)
006 -=- 06 - Never Let This Go.flac -=- CDDA (100%)
007 -=- 07 - Whoa.flac -=- CDDA (100%)
008 -=- 08 - Conspiracy.flac -=- CDDA (100%)
009 -=- 09 - Franklin.flac -=- CDDA (100%)
010 -=- 10 - My Heart.flac -=- CDDA (100%)

Сводка 100,00% CDDA

260751252
Прoдолжительность: 00:38:52
#777Трек лист:For A Pessimist I'm Pretty Optimistic
That's What You Get
Hallelujah
Misery Business
When It Rains
Let The Flames Begin
Miracle
CrushCrushCrush
We Are Broken
Fences
Born For This
Код:
Код:
Отчёт EAC об извлечении, выполненном 12. февраля 2008, 15:01 для диска:
Paramore / Riot

Дисковод: PLEXTOR DVDR   PX-750A   Adapter: 0  ID: 0
Режим чтения: Достоверный (C2: нет, Точный поток: да, Отключение кэша: да)
Коррекция смещения при чтении: 102
Способность читать области Lead-in и Lead-out : Нет

Выходной формат: Внутренние WAV-операции
                     44.100 Гц; 16 бит; стерео

Другие параметры:
    Заполнение пропущенных сэмплов тишиной : Да
    Удаление блоков с тишиной в начале и конце : Нет
    Встроенный Win32-интерфейс для Win NT/2000

Характеристики диапазона извлечения и сообщения об ошибках
Выбранный диапазон
     Имя файла C:\Documents and Settings\Admin\Мои документы\Моя музыка\Paramore - Discography\Paramore - Riot!\Paramore - Riot.wav

     Пиковый уровень 100.0 %
     Качество диапазона 100.0 %
     CRC CBB8E188
     Копирование... OK

Ошибок не произошло

Конец отчёта
Код:
Код:
AUDIOCHECKER v2.0 beta (build 457) - by Dester -
~~~~~~~~~~~~~~~~~~~~~~~~~~~~~~~~~~
-=== НЕ РЕДАКТИРУЙТЕ ЭТОТ ФАЙЛ! ===-

Путь: ...\2007 - Riot!

001 -=- 01 - For A Pessimist I'm Pretty Optimistic.flac -=- CDDA (100%)
002 -=- 02 - That's What You Get.flac -=- CDDA (100%)
003 -=- 03 - Hallelujah.flac -=- CDDA (100%)
004 -=- 04 - Misery Business.flac -=- CDDA (100%)
005 -=- 05 - When It Rains.flac -=- CDDA (99%)
006 -=- 06 - Let The Flames Begin.flac -=- CDDA (99%)
007 -=- 07 - Miracle.flac -=- CDDA (100%)
008 -=- 08 - CrushCrushCrush.flac -=- CDDA (100%)
009 -=- 09 - We Are Broken.flac -=- CDDA (100%)
010 -=- 10 - Fences.flac -=- CDDA (100%)
011 -=- 11 - Born For This.flac -=- CDDA (100%)

Сводка 99,82% CDDA

91169924
#777Прoдолжительность: 00:50:31

Трек лист:For A Pessimist, I'm Pretty Optimistic
That's What You Get
Hallelujah
Misery Business
When It Rains
Let The Flames Begin
Miracle
CrushCrushCrush
We Are Broken
Fences
Born For This
Stop This Song (Lovesick Melody)
Rewind (Demo Version)
Emergency (Live Version)
Код:
Код:
EAC extraction logfile from 12. June 2007, 11:08 for CD
Paramore / RIOT!

Used drive  : BENQ    DVD DC DQ60   Adapter: 0  ID: 0
Read mode   : Secure with C2, accurate stream, NO disable cache
Read offset correction : 102
Overread into Lead-In and Lead-Out : No

Used output format : C:\Program Files\FLAC\flac.exe   (User Defined Encoder)
                     128 kBit/s
                     Additional command line options : -V -8 -T "artist=%a" -T "title=%t" -T "album=%g" -T "date=%y" -T "tracknumber=%n" -T "genre=%m" %s

Other options      :
    Fill up missing offset samples with silence : Yes
    Delete leading and trailing silent blocks : No
    Native Win32 interface for Win NT & 2000

Track  1
     Filename C:\Documents and Settings\Donald\My Documents\riot\Paramore\RIOT!\Paramore - RIOT! - 01 - For A Pessimist, I'm Pretty Optimistic.wav

     Pre-gap length  0:00:02.00

     Peak level 100.0 %
     Track quality 100.0 %
     Test CRC 6EEF9DCF
     Copy CRC 6EEF9DCF
     Copy OK

Track  2
     Filename C:\Documents and Settings\Donald\My Documents\riot\Paramore\RIOT!\Paramore - RIOT! - 02 - That's What You Get.wav

     Peak level 100.0 %
     Track quality 100.0 %
     Test CRC 0725865C
     Copy CRC 0725865C
     Copy OK

Track  3
     Filename C:\Documents and Settings\Donald\My Documents\riot\Paramore\RIOT!\Paramore - RIOT! - 03 - Hallelujah.wav

     Peak level 100.0 %
     Track quality 99.8 %
     Test CRC 8C8E9C83
     Copy CRC 8C8E9C83
     Copy OK

Track  4
     Filename C:\Documents and Settings\Donald\My Documents\riot\Paramore\RIOT!\Paramore - RIOT! - 04 - Misery Business.wav

     Peak level 100.0 %
     Track quality 100.0 %
     Test CRC 9B26B14D
     Copy CRC 9B26B14D
     Copy OK

Track  5
     Filename C:\Documents and Settings\Donald\My Documents\riot\Paramore\RIOT!\Paramore - RIOT! - 05 - When It Rains.wav

     Peak level 100.0 %
     Track quality 100.0 %
     Test CRC 0E621CC5
     Copy CRC 0E621CC5
     Copy OK

Track  6
     Filename C:\Documents and Settings\Donald\My Documents\riot\Paramore\RIOT!\Paramore - RIOT! - 06 - Let The Flames Begin.wav

     Peak level 100.0 %
     Track quality 99.8 %
     Test CRC FABDA17C
     Copy CRC FABDA17C
     Copy OK

Track  7
     Filename C:\Documents and Settings\Donald\My Documents\riot\Paramore\RIOT!\Paramore - RIOT! - 07 - Miracle.wav

     Peak level 100.0 %
     Track quality 100.0 %
     Test CRC 5B54C9A7
     Copy CRC 5B54C9A7
     Copy OK

Track  8
     Filename C:\Documents and Settings\Donald\My Documents\riot\Paramore\RIOT!\Paramore - RIOT! - 08 - crushcrushcrush.wav

     Peak level 100.0 %
     Track quality 100.0 %
     Test CRC C17E6468
     Copy CRC C17E6468
     Copy OK

Track  9
     Filename C:\Documents and Settings\Donald\My Documents\riot\Paramore\RIOT!\Paramore - RIOT! - 09 - We Are Broken.wav

     Peak level 96.6 %
     Track quality 99.9 %
     Test CRC 29DAB731
     Copy CRC 29DAB731
     Copy OK

Track 10
     Filename C:\Documents and Settings\Donald\My Documents\riot\Paramore\RIOT!\Paramore - RIOT! - 10 - Fences.wav

     Peak level 100.0 %
     Track quality 100.0 %
     Test CRC 58D0B694
     Copy CRC 58D0B694
     Copy OK

Track 11
     Filename C:\Documents and Settings\Donald\My Documents\riot\Paramore\RIOT!\Paramore - RIOT! - 11 - Born For This.wav

     Peak level 100.0 %
     Track quality 100.0 %
     Test CRC 781E1263
     Copy CRC 781E1263
     Copy OK

Track 12
     Filename C:\Documents and Settings\Donald\My Documents\riot\Paramore\RIOT!\Paramore - RIOT! - 12 - Stop This Song(Lovesick Melody).wav

     Pre-gap length  0:00:05.00

     Peak level 100.0 %
     Track quality 100.0 %
     Test CRC BB1F862C
     Copy CRC BB1F862C
     Copy OK

Track 13
     Filename C:\Documents and Settings\Donald\My Documents\riot\Paramore\RIOT!\Paramore - RIOT! - 13 - Rewind(Demo Version).wav

     Peak level 96.6 %
     Track quality 99.9 %
     Test CRC A84FB7D9
     Copy CRC A84FB7D9
     Copy OK

Track 14
     Filename C:\Documents and Settings\Donald\My Documents\riot\Paramore\RIOT!\Paramore - RIOT! - 14 - Emergency(Live Version).wav

     Peak level 96.6 %
     Track quality 100.0 %
     Test CRC ABA66F73
     Copy CRC ABA66F73
     Copy OK

No errors occured

End of status report
Код:
Код:
AUDIOCHECKER v2.0 beta (build 457) - by Dester -
~~~~~~~~~~~~~~~~~~~~~~~~~~~~~~~~~~
-=== НЕ РЕДАКТИРУЙТЕ ЭТОТ ФАЙЛ! ===-

Путь: ...\2007 - Riot! (Best Buy Edition)

01 -=- 01 - For A Pessimist, I'm Pretty Optimistic.flac -=- CDDA (100%)
02 -=- 02 - That's What You Get.flac -=- CDDA (100%)
03 -=- 03 - Hallelujah.flac -=- CDDA (100%)
04 -=- 04 - Misery Business.flac -=- CDDA (100%)
05 -=- 05 - When It Rains.flac -=- CDDA (100%)
06 -=- 06 - Let The Flames Begin.flac -=- CDDA (99%)
07 -=- 07 - Miracle.flac -=- CDDA (100%)
08 -=- 08 - CrushCrushCrush.flac -=- CDDA (100%)
09 -=- 09 - We Are Broken.flac -=- CDDA (100%)
10 -=- 10 - Fences.flac -=- CDDA (100%)
11 -=- 11 - Born For This.flac -=- CDDA (99%)
12 -=- 12 - Stop This Song (Lovesick Melody).flac -=- CDDA (99%)
13 -=- 13 - Rewind (Demo Version).flac -=- CDDA (100%)
14 -=- 14 - Emergency (Live Version).flac -=- CDDA (100%)

Сводка 99,79% CDDA

253713620
#777Прoдолжительность: 01:03:23

Трек лист:For a Pessimist, I'm Pretty Optimistic
Born For This
Emergency
Never Let This Go
Fences
Let The Flames Begin
When It Rains
CrushCrushCrush
Pressure
Here We Go Again
That's What You Get
My Heart
Decoy
Misery Business
Код:
Код:
Exact Audio Copy V0.99 prebeta 5 from 4. May 2009

EAC extraction logfile from 4. January 2010, 11:32

Paramore / Live in The UK 2008_1

Used drive  : ATAPI   BD  O  DH4O1S   Adapter: 3  ID: 0

Read mode               : Secure
Utilize accurate stream : Yes
Defeat audio cache      : Yes
Make use of C2 pointers : No

Read offset correction                      : 6
Overread into Lead-In and Lead-Out          : No
Fill up missing offset samples with silence : Yes
Delete leading and trailing silent blocks   : No
Null samples used in CRC calculations       : Yes
Used interface                              : Native Win32 interface for Win NT & 2000

Used output format : Internal WAV Routines
Sample format      : 44.100 Hz; 16 Bit; Stereo

TOC of the extracted CD

     Track |   Start  |  Length  | Start sector | End sector
    ---------------------------------------------------------
        1  |  0:00.00 |  4:32.49 |         0    |    20448
        2  |  4:32.49 |  4:12.32 |     20449    |    39380
        3  |  8:45.06 |  4:51.52 |     39381    |    61257
        4  | 13:36.58 |  4:47.15 |     61258    |    82797
        5  | 18:23.73 |  3:46.73 |     82798    |    99820
        6  | 22:10.71 |  6:03.14 |     99821    |   127059
        7  | 28:14.10 |  3:37.19 |    127060    |   143353

Range status and errors

Selected range

     Filename I:\AUDIO LAVIGNE\Paramore\Live in The UK 2008\Paramore - Live in The UK 2008_1.wav

     Peak level 100.0 %
     Range quality 100.0 %
     Copy CRC A4404FC6
     Copy OK

No errors occurred

AccurateRip summary

Track  1  accurately ripped (confidence 2)  [00AAE6BB]
Track  2  accurately ripped (confidence 2)  [6714ADD0]
Track  3  accurately ripped (confidence 2)  [9D44D2C5]
Track  4  accurately ripped (confidence 2)  [985B93EF]
Track  5  accurately ripped (confidence 2)  [08F0523B]
Track  6  accurately ripped (confidence 2)  [947EFFAE]
Track  7  accurately ripped (confidence 2)  [E970F4EB]

All tracks accurately ripped

End of status report
Код:
Код:
Exact Audio Copy V0.99 prebeta 5 from 4. May 2009

EAC extraction logfile from 4. January 2010, 11:20

Paramore / Live in The UK 2008_2

Used drive  : ATAPI   BD  O  DH4O1S   Adapter: 3  ID: 0

Read mode               : Secure
Utilize accurate stream : Yes
Defeat audio cache      : Yes
Make use of C2 pointers : No

Read offset correction                      : 6
Overread into Lead-In and Lead-Out          : No
Fill up missing offset samples with silence : Yes
Delete leading and trailing silent blocks   : No
Null samples used in CRC calculations       : Yes
Used interface                              : Native Win32 interface for Win NT & 2000

Used output format : Internal WAV Routines
Sample format      : 44.100 Hz; 16 Bit; Stereo

TOC of the extracted CD

     Track |   Start  |  Length  | Start sector | End sector
    ---------------------------------------------------------
        1  |  0:00.00 |  3:33.65 |         0    |    16039
        2  |  3:33.65 |  4:47.23 |     16040    |    37587
        3  |  8:21.13 |  3:17.21 |     37588    |    52383
        4  | 11:38.34 |  5:03.53 |     52384    |    75161
        5  | 16:42.12 |  6:34.34 |     75162    |   104745
        6  | 23:16.46 |  4:29.10 |    104746    |   124930
        7  | 27:45.56 |  3:46.06 |    124931    |   141886

Range status and errors

Selected range

     Filename I:\AUDIO LAVIGNE\Paramore\Live in The UK 2008\Paramore - Live in The UK 2008_2.wav

     Peak level 99.1 %
     Range quality 100.0 %
     Copy CRC 4FF9071C
     Copy OK

No errors occurred

AccurateRip summary

Track  1  accurately ripped (confidence 2)  [8A5B7ED6]
Track  2  accurately ripped (confidence 2)  [5ED3CA35]
Track  3  accurately ripped (confidence 2)  [77E7AD79]
Track  4  accurately ripped (confidence 2)  [81110E1A]
Track  5  accurately ripped (confidence 2)  [FC845D72]
Track  6  accurately ripped (confidence 2)  [EF7DA44E]
Track  7  accurately ripped (confidence 2)  [F76F26C7]

All tracks accurately ripped

End of status report
Код:
Код:
AUDIOCHECKER v2.0 beta (build 457) - by Dester -
~~~~~~~~~~~~~~~~~~~~~~~~~~~~~~~~~~
-=== НЕ РЕДАКТИРУЙТЕ ЭТОТ ФАЙЛ! ===-

Путь: ...\2008 - Live In The UK

001 -=- 01 - For a Pessimist, I'm Pretty Optimistic.flac -=- CDDA (100%)
002 -=- 02 - Born For This.flac -=- CDDA (100%)
003 -=- 03 - Emergency.flac -=- CDDA (100%)
004 -=- 04 - Never Let This Go.flac -=- CDDA (100%)
005 -=- 05 - Fences.flac -=- CDDA (100%)
006 -=- 06 - Let The Flames Begin.flac -=- CDDA (100%)
007 -=- 07 - When It Rains.flac -=- CDDA (100%)
008 -=- 08 - CrushCrushCrush.flac -=- CDDA (100%)
009 -=- 09 - Pressure.flac -=- CDDA (100%)
010 -=- 10 - Here We Go Again.flac -=- CDDA (99%)
011 -=- 11 - That's What You Get.flac -=- CDDA (100%)
012 -=- 12 - My Heart.flac -=- CDDA (100%)
013 -=- 13 - Decoy.flac -=- CDDA (99%)
014 -=- 14 - Misery Business.flac -=- CDDA (99%)

Сводка 99,79% CDDA

162985556
#777Прoдолжительность: 01:06:34

Трек лист:Born For This (Live From Chicago)
That's What You Get (Live From Chicago)
Here We Go Again (Live From Chicago)
Fences (Live From Chicago)
CrushCrushCrush (Live From Chicago)
Let The Flames Begin (Live From Chicago)
When It Rains (Live From Chicago)
My Heart (Live From Chicago)
Decoy (Live From Chicago)
Pressure (Live From Chicago)
For A Pessimist, I'm Pretty Optimistic (Live From Chicago)
We Are Broken (Live From Chicago)
Emergency (Live From Chicago)
Hallelujah (Live From Chicago)
Misery Business (Live From Chicago)
Код:
Код:
Exact Audio Copy V0.99 prebeta 5 from 4. May 2009

EAC extraction logfile from 4. January 2010, 11:50

Paramore / The Final Riot!

Used drive  : ATAPI   BD  O  DH4O1S   Adapter: 3  ID: 0

Read mode               : Secure
Utilize accurate stream : Yes
Defeat audio cache      : Yes
Make use of C2 pointers : No

Read offset correction                      : 6
Overread into Lead-In and Lead-Out          : No
Fill up missing offset samples with silence : Yes
Delete leading and trailing silent blocks   : No
Null samples used in CRC calculations       : Yes
Used interface                              : Native Win32 interface for Win NT & 2000

Used output format : Internal WAV Routines
Sample format      : 44.100 Hz; 16 Bit; Stereo

TOC of the extracted CD

     Track |   Start  |  Length  | Start sector | End sector
    ---------------------------------------------------------
        1  |  0:00.00 |  5:46.25 |         0    |    25974
        2  |  5:46.25 |  3:33.64 |     25975    |    42013
        3  |  9:20.14 |  4:09.50 |     42014    |    60738
        4  | 13:29.64 |  3:30.49 |     60739    |    76537
        5  | 17:00.38 |  3:15.08 |     76538    |    91170
        6  | 20:15.46 |  5:38.00 |     91171    |   116520
        7  | 25:53.46 |  4:03.57 |    116521    |   134802
        8  | 29:57.28 |  5:30.62 |    134803    |   159614
        9  | 35:28.15 |  3:13.47 |    159615    |   174136
       10  | 38:41.62 |  3:01.38 |    174137    |   187749
       11  | 41:43.25 |  4:26.62 |    187750    |   207761
       12  | 46:10.12 |  5:24.61 |    207762    |   232122
       13  | 51:34.73 |  5:22.34 |    232123    |   256306
       14  | 56:57.32 |  4:57.10 |    256307    |   278591
       15  | 61:54.42 |  4:39.60 |    278592    |   299576

Range status and errors

Selected range

     Filename I:\AUDIO LAVIGNE\Paramore\The Final Riot!\Paramore - The Final Riot!.wav

     Peak level 100.0 %
     Range quality 100.0 %
     Copy CRC 8CEC0101
     Copy OK

No errors occurred

AccurateRip summary

Track  1  accurately ripped (confidence 5)  [4E81EF78]
Track  2  accurately ripped (confidence 5)  [59BC6E03]
Track  3  accurately ripped (confidence 5)  [6ECBFBC2]
Track  4  accurately ripped (confidence 3)  [BEE0CA62]
Track  5  accurately ripped (confidence 3)  [E418E9A5]
Track  6  accurately ripped (confidence 3)  [AAC0D986]
Track  7  accurately ripped (confidence 4)  [838AA74F]
Track  8  accurately ripped (confidence 4)  [6341BA70]
Track  9  accurately ripped (confidence 4)  [BCAFA472]
Track 10  accurately ripped (confidence 4)  [6EDFF70D]
Track 11  accurately ripped (confidence 4)  [AB1C8E11]
Track 12  accurately ripped (confidence 4)  [201D7F11]
Track 13  accurately ripped (confidence 4)  [ECDC6441]
Track 14  accurately ripped (confidence 3)  [C5D8895D]
Track 15  accurately ripped (confidence 4)  [B33B42BC]

All tracks accurately ripped

End of status report
Код:
Код:
AUDIOCHECKER v2.0 beta (build 457) - by Dester -
~~~~~~~~~~~~~~~~~~~~~~~~~~~~~~~~~~
-=== НЕ РЕДАКТИРУЙТЕ ЭТОТ ФАЙЛ! ===-

Путь: ...\2008 - The Final Riot!

001 -=- 01 - Born For This (Live From Chicago).flac -=- CDDA (100%)
002 -=- 02 - That's What You Get (Live From Chicago).flac -=- CDDA (100%)
003 -=- 03 - Here We Go Again (Live From Chicago).flac -=- CDDA (100%)
004 -=- 04 - Fences (Live From Chicago).flac -=- CDDA (100%)
005 -=- 05 - CrushCrushCrush (Live From Chicago).flac -=- CDDA (100%)
006 -=- 06 - Let The Flames Begin (Live From Chicago).flac -=- CDDA (100%)
007 -=- 07 - When It Rains (Live From Chicago).flac -=- CDDA (100%)
008 -=- 08 - My Heart (Live From Chicago).flac -=- CDDA (100%)
009 -=- 09 - Decoy (Live From Chicago).flac -=- CDDA (100%)
010 -=- 10 - Pressure (Live From Chicago).flac -=- CDDA (100%)
011 -=- 11 - For A Pessimist, I'm Pretty Optimistic (Live From Chicago).flac -=- CDDA (100%)
012 -=- 12 - We Are Broken (Live From Chicago).flac -=- CDDA (100%)
013 -=- 13 - Emergency (Live From Chicago).flac -=- CDDA (100%)
014 -=- 14 - Hallelujah (Live From Chicago).flac -=- CDDA (100%)
015 -=- 15 - Misery Business (Live From Chicago).flac -=- CDDA (100%)

Сводка 100,00% CDDA

163653204
#777Прoдолжительность: 00:40:13

Трек лист:Careful
Ignorance
Playing God
Brick By Boring Brick
Turn It Off
The Only Exception
Feeling Sorry
Looking Up
Where The Lines Overlap
Misguided Ghosts
All I Wanted
Код:
Код:
Exact Audio Copy V0.99 prebeta 4 from 23. January 2008

EAC extraction logfile from 25. September 2009, 16:26

Paramore / Brand New Eyes

Used drive  : HL-DT-STDVDRAM GSA-4120B   Adapter: 1  ID: 0

Read mode               : Secure
Utilize accurate stream : Yes
Defeat audio cache      : Yes
Make use of C2 pointers : No

Read offset correction                      : 667
Overread into Lead-In and Lead-Out          : No
Fill up missing offset samples with silence : Yes
Delete leading and trailing silent blocks   : No
Null samples used in CRC calculations       : Yes
Used interface                              : Installed external ASPI interface
Gap handling                                : Appended to previous track

Used output format              : User Defined Encoder
Selected bitrate                : 1024 kBit/s
Quality                         : High
Add ID3 tag                     : No
Command line compressor         : C:\Program Files\Exact Audio Copy\FLAC\FLAC.EXE
Additional command line options : -8 -A tukey(0.25) -A gauss(0.1875) -b 4096 -V -T "artist=%a" -T "title=%t" -T "album=%g" -T "date=%y" -T "tracknumber=%n" -T "genre=%m" %s --sector-align

TOC of the extracted CD

     Track |   Start  |  Length  | Start sector | End sector
    ---------------------------------------------------------
        1  |  0:00.00 |  3:50.33 |         0    |    17282
        2  |  3:50.33 |  3:38.47 |     17283    |    33679
        3  |  7:29.05 |  3:02.60 |     33680    |    47389
        4  | 10:31.65 |  4:13.71 |     47390    |    66435
        5  | 14:45.61 |  4:19.54 |     66436    |    85914
        6  | 19:05.40 |  4:27.49 |     85915    |   105988
        7  | 23:33.14 |  3:05.11 |    105989    |   119874
        8  | 26:38.25 |  3:29.32 |    119875    |   135581
        9  | 30:07.57 |  3:18.56 |    135582    |   150487
       10  | 33:26.38 |  3:01.38 |    150488    |   164100
       11  | 36:28.01 |  3:45.59 |    164101    |   181034

Track  1

     Filename C:\Stuff\Paramore - brand new eyes (EAC FLAC LOG + CUE)\01 - Paramore - Careful.wav

     Pre-gap length  0:00:02.00

     Peak level 100.0 %
     Track quality 99.9 %
     Test CRC 2C5DD600
     Copy CRC 2C5DD600
     Track not present in AccurateRip database
     Copy OK

Track  2

     Filename C:\Stuff\Paramore - brand new eyes (EAC FLAC LOG + CUE)\02 - Paramore - Ignorance.wav

     Peak level 100.0 %
     Track quality 100.0 %
     Test CRC CC09A265
     Copy CRC CC09A265
     Track not present in AccurateRip database
     Copy OK

Track  3

     Filename C:\Stuff\Paramore - brand new eyes (EAC FLAC LOG + CUE)\03 - Paramore - Playing God.wav

     Peak level 100.0 %
     Track quality 100.0 %
     Test CRC 0802919D
     Copy CRC 0802919D
     Track not present in AccurateRip database
     Copy OK

Track  4

     Filename C:\Stuff\Paramore - brand new eyes (EAC FLAC LOG + CUE)\04 - Paramore - Brick by Boring Brick.wav

     Peak level 100.0 %
     Track quality 100.0 %
     Test CRC 15C4ECDB
     Copy CRC 15C4ECDB
     Track not present in AccurateRip database
     Copy OK

Track  5

     Filename C:\Stuff\Paramore - brand new eyes (EAC FLAC LOG + CUE)\05 - Paramore - Turn It Off.wav

     Peak level 100.0 %
     Track quality 100.0 %
     Test CRC 1C2AFE19
     Copy CRC 1C2AFE19
     Track not present in AccurateRip database
     Copy OK

Track  6

     Filename C:\Stuff\Paramore - brand new eyes (EAC FLAC LOG + CUE)\06 - Paramore - The Only Exception.wav

     Peak level 100.0 %
     Track quality 99.9 %
     Test CRC A5BF90A4
     Copy CRC A5BF90A4
     Track not present in AccurateRip database
     Copy OK

Track  7

     Filename C:\Stuff\Paramore - brand new eyes (EAC FLAC LOG + CUE)\07 - Paramore - Feeling Sorry.wav

     Peak level 100.0 %
     Track quality 100.0 %
     Test CRC 281C57B8
     Copy CRC 281C57B8
     Track not present in AccurateRip database
     Copy OK

Track  8

     Filename C:\Stuff\Paramore - brand new eyes (EAC FLAC LOG + CUE)\08 - Paramore - Looking Up.wav

     Peak level 100.0 %
     Track quality 100.0 %
     Test CRC 727293A7
     Copy CRC 727293A7
     Track not present in AccurateRip database
     Copy OK

Track  9

     Filename C:\Stuff\Paramore - brand new eyes (EAC FLAC LOG + CUE)\09 - Paramore - Where the Lines Overlap.wav

     Peak level 100.0 %
     Track quality 100.0 %
     Test CRC DB9E5E05
     Copy CRC DB9E5E05
     Track not present in AccurateRip database
     Copy OK

Track 10

     Filename C:\Stuff\Paramore - brand new eyes (EAC FLAC LOG + CUE)\10 - Paramore - Misguided Ghosts.wav

     Peak level 100.0 %
     Track quality 100.0 %
     Test CRC 4DF255E0
     Copy CRC 4DF255E0
     Track not present in AccurateRip database
     Copy OK

Track 11

     Filename C:\Stuff\Paramore - brand new eyes (EAC FLAC LOG + CUE)\11 - Paramore - All I Wanted.wav

     Peak level 100.0 %
     Track quality 100.0 %
     Test CRC 5BDA84E1
     Copy CRC 5BDA84E1
     Track not present in AccurateRip database
     Copy OK

None of the tracks are present in the AccurateRip database

No errors occurred

End of status report
Код:
Код:
AUDIOCHECKER v2.0 beta (build 457) - by Dester -
~~~~~~~~~~~~~~~~~~~~~~~~~~~~~~~~~~
-=== НЕ РЕДАКТИРУЙТЕ ЭТОТ ФАЙЛ! ===-

Путь: ...\2009 - Brand New Eyes

01 -=- 01 - Careful.flac -=- CDDA (100%)
02 -=- 02 - Ignorance.flac -=- CDDA (100%)
03 -=- 03 - Playing God.flac -=- CDDA (100%)
04 -=- 04 - Brick By Boring Brick.flac -=- CDDA (100%)
05 -=- 05 - Turn It Off.flac -=- CDDA (100%)
06 -=- 06 - The Only Exception.flac -=- CDDA (99%)
07 -=- 07 - Feeling Sorry.flac -=- CDDA (100%)
08 -=- 08 - Looking Up.flac -=- CDDA (100%)
09 -=- 09 - Where The Lines Overlap.flac -=- CDDA (99%)
10 -=- 10 - Misguided Ghosts.flac -=- CDDA (100%)
11 -=- 11 - All I Wanted.flac -=- CDDA (99%)

Сводка 99,73% CDDA

194888612
#777Прoдолжительность: 00:47:10

Трек лист:Careful
Ignorance
Playing God
Brick By Boring Brick
Turn It Off
The Only Exception
Feeling Sorry
Looking Up
Where The Lines Overlap
Misguided Ghosts
All I Wanted
Ignorance (Acoustic)
Where The Lines Overlap (Acoustic)
Код:
Код:
Exact Audio Copy V0.99 prebeta 3 from 28. July 2007

EAC extraction logfile from 25. September 2009, 23:54

Paramore / brand new eyes

Used drive  : LITE-ON LTR-32123S   Adapter: 3  ID: 0

Read mode               : Secure
Utilize accurate stream : Yes
Defeat audio cache      : Yes
Make use of C2 pointers : No

Read offset correction                      : 12
Overread into Lead-In and Lead-Out          : No
Fill up missing offset samples with silence : Yes
Delete leading and trailing silent blocks   : No
Null samples used in CRC calculations       : Yes
Used interface                              : Native Win32 interface for Win NT & 2000
Gap handling                                : Appended to previous track

Used output format              : User Defined Encoder
Selected bitrate                : 768 kBit/s
Quality                         : High
Add ID3 tag                     : No
Command line compressor         : E:\Program Files\FLAC\flac.exe
Additional command line options : -V -8 -T "artist=%a" -T "title=%t" -T "album=%g" -T "date=%y" -T "tracknumber=%n" -T "genre=%m" %s -T "track=%n" -T "year=%y"

TOC of the extracted CD

     Track |   Start  |  Length  | Start sector | End sector
    ---------------------------------------------------------
        1  |  0:00.00 |  3:50.33 |         0    |    17282
        2  |  3:50.33 |  3:38.47 |     17283    |    33679
        3  |  7:29.05 |  3:02.60 |     33680    |    47389
        4  | 10:31.65 |  4:13.71 |     47390    |    66435
        5  | 14:45.61 |  4:19.54 |     66436    |    85914
        6  | 19:05.40 |  4:27.49 |     85915    |   105988
        7  | 23:33.14 |  3:05.11 |    105989    |   119874
        8  | 26:38.25 |  3:29.32 |    119875    |   135581
        9  | 30:07.57 |  3:18.56 |    135582    |   150487
       10  | 33:26.38 |  3:01.38 |    150488    |   164100
       11  | 36:28.01 |  3:49.21 |    164101    |   181296
       12  | 40:17.22 |  3:40.63 |    181297    |   197859
       13  | 43:58.10 |  3:12.47 |    197860    |   212306

Track  1

     Filename \\Eugeneslaptop\CDs\Paramore - brand new eyes\01 Careful.wav

     Pre-gap length  0:00:02.00

     Peak level 100.0 %
     Track quality 99.9 %
     Test CRC 2C5DD600
     Copy CRC 2C5DD600
     Copy OK

Track  2

     Filename \\Eugeneslaptop\CDs\Paramore - brand new eyes\02 Ignorance.wav

     Peak level 100.0 %
     Track quality 100.0 %
     Test CRC 5A015967
     Copy CRC 5A015967
     Copy OK

Track  3

     Filename \\Eugeneslaptop\CDs\Paramore - brand new eyes\03 Playing God.wav

     Peak level 100.0 %
     Track quality 100.0 %
     Test CRC 0802919D
     Copy CRC 0802919D
     Copy OK

Track  4

     Filename \\Eugeneslaptop\CDs\Paramore - brand new eyes\04 Brick By Boring Brick.wav

     Peak level 100.0 %
     Track quality 100.0 %
     Test CRC 15C4ECDB
     Copy CRC 15C4ECDB
     Copy OK

Track  5

     Filename \\Eugeneslaptop\CDs\Paramore - brand new eyes\05 Turn It Off.wav

     Peak level 100.0 %
     Track quality 100.0 %
     Test CRC 1C2AFE19
     Copy CRC 1C2AFE19
     Copy OK

Track  6

     Filename \\Eugeneslaptop\CDs\Paramore - brand new eyes\06 The Only Exception.wav

     Peak level 100.0 %
     Track quality 99.9 %
     Test CRC A5BF90A4
     Copy CRC A5BF90A4
     Copy OK

Track  7

     Filename \\Eugeneslaptop\CDs\Paramore - brand new eyes\07 Feeling Sorry.wav

     Peak level 100.0 %
     Track quality 100.0 %
     Test CRC 281C57B8
     Copy CRC 281C57B8
     Copy OK

Track  8

     Filename \\Eugeneslaptop\CDs\Paramore - brand new eyes\08 Looking Up.wav

     Peak level 100.0 %
     Track quality 100.0 %
     Test CRC 727293A7
     Copy CRC 727293A7
     Copy OK

Track  9

     Filename \\Eugeneslaptop\CDs\Paramore - brand new eyes\09 Where The Lines Overlap.wav

     Peak level 100.0 %
     Track quality 100.0 %
     Test CRC DB9E5E05
     Copy CRC DB9E5E05
     Copy OK

Track 10

     Filename \\Eugeneslaptop\CDs\Paramore - brand new eyes\10 Misguided Ghosts.wav

     Peak level 100.0 %
     Track quality 100.0 %
     Test CRC 4DF255E0
     Copy CRC 4DF255E0
     Copy OK

Track 11

     Filename \\Eugeneslaptop\CDs\Paramore - brand new eyes\11 All I Wanted.wav

     Peak level 100.0 %
     Track quality 100.0 %
     Test CRC 0F86CB01
     Copy CRC 0F86CB01
     Copy OK

Track 12

     Filename \\Eugeneslaptop\CDs\Paramore - brand new eyes\12 Ignorance [Acoustic].wav

     Pre-gap length  0:00:03.49

     Peak level 100.0 %
     Track quality 99.9 %
     Test CRC D1DEB1D8
     Copy CRC D1DEB1D8
     Copy OK

Track 13

     Filename \\Eugeneslaptop\CDs\Paramore - brand new eyes\13 Where The Lines Overlap [Acoustic].wav

     Peak level 100.0 %
     Track quality 99.9 %
     Test CRC 3B4AD870
     Copy CRC 3B4AD870
     Copy OK

No errors occurred

End of status report
Код:
Код:
AUDIOCHECKER v2.0 beta (build 457) - by Dester -
~~~~~~~~~~~~~~~~~~~~~~~~~~~~~~~~~~
-=== НЕ РЕДАКТИРУЙТЕ ЭТОТ ФАЙЛ! ===-

Путь: ...\2009 - Brand New Eyes (Deluxe Edition)

001 -=- 01 - Careful.flac -=- CDDA (100%)
002 -=- 02 - Ignorance.flac -=- CDDA (100%)
003 -=- 03 - Playing God.flac -=- CDDA (100%)
004 -=- 04 - Brick By Boring Brick.flac -=- CDDA (100%)
005 -=- 05 - Turn It Off.flac -=- CDDA (100%)
006 -=- 06 - The Only Exception.flac -=- CDDA (99%)
007 -=- 07 - Feeling Sorry.flac -=- CDDA (100%)
008 -=- 08 - Looking Up.flac -=- CDDA (100%)
009 -=- 09 - Where The Lines Overlap.flac -=- CDDA (99%)
010 -=- 10 - Misguided Ghosts.flac -=- CDDA (100%)
011 -=- 11 - All I Wanted.flac -=- CDDA (99%)
012 -=- 12 - Ignorance (Acoustic).flac -=- CDDA (100%)
013 -=- 13 - Where The Lines Overlap (Acoustic).flac -=- CDDA (100%)

Сводка 99,77% CDDA

189101476
#777Прoдолжительность: 00:44:38

Трек лист:Careful
Ignorance
Playing God
Brick By Boring Brick
Turn It Off
The Only Exception
Feeling Sorry
Looking Up
Where The Lines Overlap
Misguided Ghosts
All I Wanted
Decode
Код:
Код:
Exact Audio Copy V0.99 prebeta 5 from 4. May 2009

EAC extraction logfile from 4. January 2010, 0:26

Paramore / Brand New Eyes

Used drive  : PLEXTOR DVDR   PX-750A   Adapter: 0  ID: 1

Read mode               : Secure
Utilize accurate stream : Yes
Defeat audio cache      : Yes
Make use of C2 pointers : No

Read offset correction                      : 102
Overread into Lead-In and Lead-Out          : No
Fill up missing offset samples with silence : Yes
Delete leading and trailing silent blocks   : No
Null samples used in CRC calculations       : Yes
Used interface                              : Native Win32 interface for Win NT & 2000

Used output format : Internal WAV Routines
Sample format      : 44.100 Hz; 16 Bit; Stereo

TOC of the extracted CD

     Track |   Start  |  Length  | Start sector | End sector
    ---------------------------------------------------------
        1  |  0:00.00 |  3:50.33 |         0    |    17282
        2  |  3:50.33 |  3:38.47 |     17283    |    33679
        3  |  7:29.05 |  3:02.60 |     33680    |    47389
        4  | 10:31.65 |  4:13.71 |     47390    |    66435
        5  | 14:45.61 |  4:19.54 |     66436    |    85914
        6  | 19:05.40 |  4:27.49 |     85915    |   105988
        7  | 23:33.14 |  3:05.11 |    105989    |   119874
        8  | 26:38.25 |  3:29.32 |    119875    |   135581
        9  | 30:07.57 |  3:18.56 |    135582    |   150487
       10  | 33:26.38 |  3:01.38 |    150488    |   164100
       11  | 36:28.01 |  3:48.20 |    164101    |   181220
       12  | 40:16.21 |  4:22.26 |    181221    |   200896

Range status and errors

Selected range

     Filename I:\AUDIO LAVIGNE\Paramore\Brand New Eyes\Paramore - Brand New Eyes.wav

     Peak level 100.0 %
     Range quality 100.0 %
     Copy CRC D0B502EA
     Copy OK

No errors occurred

AccurateRip summary

Track  1  accurately ripped (confidence 27)  [F6ED19E8]
Track  2  accurately ripped (confidence 27)  [2C3285BA]
Track  3  accurately ripped (confidence 27)  [B5BE34FA]
Track  4  accurately ripped (confidence 27)  [3E73F553]
Track  5  accurately ripped (confidence 27)  [4A4C08CC]
Track  6  accurately ripped (confidence 27)  [6F2F3CF4]
Track  7  accurately ripped (confidence 27)  [16046EDA]
Track  8  accurately ripped (confidence 27)  [93172372]
Track  9  accurately ripped (confidence 27)  [4A1B5E05]
Track 10  accurately ripped (confidence 27)  [D68949F7]
Track 11  accurately ripped (confidence 27)  [0B6B9090]
Track 12  accurately ripped (confidence 27)  [DBE5F4AE]

All tracks accurately ripped

End of status report
Код:
Код:
AUDIOCHECKER v2.0 beta (build 457) - by Dester -
~~~~~~~~~~~~~~~~~~~~~~~~~~~~~~~~~~
-=== НЕ РЕДАКТИРУЙТЕ ЭТОТ ФАЙЛ! ===-

Путь: ...\2009 - Brand New Eyes (European Edition)

001 -=- 01 - Careful.flac -=- CDDA (100%)
002 -=- 02 - Ignorance.flac -=- CDDA (100%)
003 -=- 03 - Playing God.flac -=- CDDA (100%)
004 -=- 04 - Brick By Boring Brick.flac -=- CDDA (100%)
005 -=- 05 - Turn It Off.flac -=- CDDA (100%)
006 -=- 06 - The Only Exception.flac -=- CDDA (100%)
007 -=- 07 - Feeling Sorry.flac -=- CDDA (100%)
008 -=- 08 - Looking Up.flac -=- CDDA (100%)
009 -=- 09 - Where The Lines Overlap.flac -=- CDDA (99%)
010 -=- 10 - Misguided Ghosts.flac -=- CDDA (100%)
011 -=- 11 - All I Wanted.flac -=- CDDA (100%)
012 -=- 12 - Decode.flac -=- CDDA (99%)

Сводка 99,83% CDDA

141372084
#777Прoдолжительность: 00:48:20

Трек лист:Careful
Ignorance
Playing God
Brick By Boring Brick
Turn It Off
The Only Exception
Feeling Sorry
Looking Up
Where The Lines Overlap
Misguided Ghosts
All I Wanted
Decode
Ignorance (Acoustic Version) (Bonus Track)
Код:
Код:
Exact Audio Copy V0.99 prebeta 5 from 4. May 2009

EAC extraction logfile from 4. January 2010, 10:51

paramore / brand new eyes

Used drive  : PLEXTOR DVDR   PX-750A   Adapter: 0  ID: 1

Read mode               : Secure
Utilize accurate stream : Yes
Defeat audio cache      : Yes
Make use of C2 pointers : No

Read offset correction                      : 102
Overread into Lead-In and Lead-Out          : No
Fill up missing offset samples with silence : Yes
Delete leading and trailing silent blocks   : No
Null samples used in CRC calculations       : Yes
Used interface                              : Native Win32 interface for Win NT & 2000

Used output format : Internal WAV Routines
Sample format      : 44.100 Hz; 16 Bit; Stereo

TOC of the extracted CD

     Track |   Start  |  Length  | Start sector | End sector
    ---------------------------------------------------------
        1  |  0:00.00 |  3:50.33 |         0    |    17282
        2  |  3:50.33 |  3:38.47 |     17283    |    33679
        3  |  7:29.05 |  3:02.60 |     33680    |    47389
        4  | 10:31.65 |  4:13.71 |     47390    |    66435
        5  | 14:45.61 |  4:19.54 |     66436    |    85914
        6  | 19:05.40 |  4:27.49 |     85915    |   105988
        7  | 23:33.14 |  3:05.11 |    105989    |   119874
        8  | 26:38.25 |  3:29.32 |    119875    |   135581
        9  | 30:07.57 |  3:18.56 |    135582    |   150487
       10  | 33:26.38 |  3:01.38 |    150488    |   164100
       11  | 36:28.01 |  3:48.20 |    164101    |   181220
       12  | 40:16.21 |  4:23.63 |    181221    |   201008
       13  | 44:40.09 |  3:40.56 |    201009    |   217564
       14  | 50:52.65 |  5:54.44 |    228965    |   255558

Range status and errors

Selected range

     Filename I:\AUDIO LAVIGNE\Paramore\brand new eyes Japan\paramore - brand new eyes.wav

     Peak level 100.0 %
     Range quality 100.0 %
     Copy CRC C8A98E8E
     Copy OK

No errors occurred

AccurateRip summary

Track  1  not present in database
Track  2  accurately ripped (confidence 2)  [84503A85]
Track  3  accurately ripped (confidence 2)  [C93D2DA0]
Track  4  accurately ripped (confidence 2)  [B13ACF64]
Track  5  accurately ripped (confidence 2)  [F0374E48]
Track  6  accurately ripped (confidence 2)  [00E3357F]
Track  7  accurately ripped (confidence 2)  [466E5DE7]
Track  8  accurately ripped (confidence 2)  [2428BD5A]
Track  9  accurately ripped (confidence 2)  [5CB04308]
Track 10  accurately ripped (confidence 2)  [A92106EE]
Track 11  accurately ripped (confidence 2)  [C1A9F285]
Track 12  accurately ripped (confidence 2)  [4035C6DF]
Track 13  accurately ripped (confidence 2)  [101B02D3]

12 track(s) accurately ripped
 1 track(s) not present in the AccurateRip database

Some tracks could not be verified as accurate

End of status report
Код:
Код:
AUDIOCHECKER v2.0 beta (build 457) - by Dester -
~~~~~~~~~~~~~~~~~~~~~~~~~~~~~~~~~~
-=== НЕ РЕДАКТИРУЙТЕ ЭТОТ ФАЙЛ! ===-

Путь: ...\2009 - Brand New Eyes (Japan Edition)

001 -=- 01 - Careful.flac -=- CDDA (100%)
002 -=- 02 - Ignorance.flac -=- CDDA (100%)
003 -=- 03 - Playing God.flac -=- CDDA (100%)
004 -=- 04 - Brick By Boring Brick.flac -=- CDDA (100%)
005 -=- 05 - Turn It Off.flac -=- CDDA (100%)
006 -=- 06 - The Only Exception.flac -=- CDDA (100%)
007 -=- 07 - Feeling Sorry.flac -=- CDDA (100%)
008 -=- 08 - Looking Up.flac -=- CDDA (100%)
009 -=- 09 - Where The Lines Overlap.flac -=- CDDA (99%)
010 -=- 10 - Misguided Ghosts.flac -=- CDDA (100%)
011 -=- 11 - All I Wanted.flac -=- CDDA (99%)
012 -=- 12 - Decode.flac -=- CDDA (100%)
013 -=- 13 - Ignorance (Acoustic Version) (Bonus Track).flac -=- CDDA (99%)

Сводка 99,77% CDDA

212222676
Singles & EPs:
#777Прoдолжительность: 00:04:00

Трек лист:Emergency
Код:
Код:
Exact Audio Copy V0.99 prebeta 5 from 4. May 2009

EAC extraction logfile from 4. January 2010, 12:00

Paramore / Emergency

Used drive  : ATAPI   BD  O  DH4O1S   Adapter: 3  ID: 0

Read mode               : Secure
Utilize accurate stream : Yes
Defeat audio cache      : Yes
Make use of C2 pointers : No

Read offset correction                      : 6
Overread into Lead-In and Lead-Out          : No
Fill up missing offset samples with silence : Yes
Delete leading and trailing silent blocks   : No
Null samples used in CRC calculations       : Yes
Used interface                              : Native Win32 interface for Win NT & 2000

Used output format : Internal WAV Routines
Sample format      : 44.100 Hz; 16 Bit; Stereo

TOC of the extracted CD

     Track |   Start  |  Length  | Start sector | End sector
    ---------------------------------------------------------
        1  |  0:00.00 |  4:00.05 |         0    |    18004

Range status and errors

Selected range

     Filename I:\AUDIO LAVIGNE\Paramore\Emergency\Paramore - Emergency.wav

     Peak level 96.6 %
     Range quality 99.9 %
     Copy CRC 32D6FD5C
     Copy OK

No errors occurred

AccurateRip summary

Track  1  not present in database

None of the tracks are present in the AccurateRip database

End of status report
Код:
Код:
AUDIOCHECKER v2.0 beta (build 457) - by Dester -
~~~~~~~~~~~~~~~~~~~~~~~~~~~~~~~~~~
-=== НЕ РЕДАКТИРУЙТЕ ЭТОТ ФАЙЛ! ===-

Путь: ...\2005 - Emergency

001 -=- 01 - Emergency.flac -=- CDDA (100%)

12198004
#777Прoдолжительность: 00:16:23

Трек лист:Emergency (Crab Mix)
O Star
Stuck On You
This Circle
Код:
Код:
Exact Audio Copy V0.99 prebeta 4 from 23. January 2008

EAC extraction logfile from 22. December 2008, 3:40

Paramore / The Summer Tic EP

Used drive  : TSSTcorpCD/DVDW SH-S182M   Adapter: 5  ID: 1

Read mode               : Secure
Utilize accurate stream : Yes
Defeat audio cache      : Yes
Make use of C2 pointers : No

Read offset correction                      : 6
Overread into Lead-In and Lead-Out          : No
Fill up missing offset samples with silence : Yes
Delete leading and trailing silent blocks   : No
Null samples used in CRC calculations       : Yes
Used interface                              : Native Win32 interface for Win NT & 2000
Gap handling                                : Appended to previous track

Used output format              : User Defined Encoder
Selected bitrate                : 320 kBit/s
Quality                         : High
Add ID3 tag                     : No
Command line compressor         : C:\Program Files\FLAC\flac.exe
Additional command line options : -V -8 -T "artist=%a" -T "title=%t" -T "album=%g" -T "date=%y" -T "tracknumber=%n" -T "genre=%m" %s

TOC of the extracted CD

     Track |   Start  |  Length  | Start sector | End sector
    ---------------------------------------------------------
        1  |  0:00.00 |  4:03.41 |         0    |    18265
        2  |  4:03.41 |  3:47.08 |     18266    |    35298
        3  |  7:50.49 |  4:27.37 |     35299    |    55360
        4  | 12:18.11 |  4:05.35 |     55361    |    73770

Track  1

     Filename E:\EAC\FLAC\Paramore\The Summer Tic EP\01 - Emergency (Crab Mix).wav

     Pre-gap length  0:00:02.00

     Peak level 96.6 %
     Track quality 100.0 %
     Test CRC F7C5D214
     Copy CRC F7C5D214
     Track not present in AccurateRip database
     Copy OK

Track  2

     Filename E:\EAC\FLAC\Paramore\The Summer Tic EP\02 - O Star.wav

     Peak level 96.6 %
     Track quality 99.9 %
     Test CRC D5BC38EB
     Copy CRC D5BC38EB
     Track not present in AccurateRip database
     Copy OK

Track  3

     Filename E:\EAC\FLAC\Paramore\The Summer Tic EP\03 - Stuck On You.wav

     Peak level 96.6 %
     Track quality 100.0 %
     Test CRC FE953D20
     Copy CRC FE953D20
     Track not present in AccurateRip database
     Copy OK

Track  4

     Filename E:\EAC\FLAC\Paramore\The Summer Tic EP\04 - This Circle.wav

     Peak level 96.6 %
     Track quality 100.0 %
     Test CRC 23698EE2
     Copy CRC 23698EE2
     Track not present in AccurateRip database
     Copy OK

None of the tracks are present in the AccurateRip database

No errors occurred

End of status report
Код:
Код:
AUDIOCHECKER v2.0 beta (build 457) - by Dester -
~~~~~~~~~~~~~~~~~~~~~~~~~~~~~~~~~~
-=== DO NOT EDIT THIS FILE! ===-

Path: ...\Paramore 2006-The Summer Tic [EP] (power pop) [flac]

1 -=- 01 - Emergency (Crab mix).flac -=- CDDA (100%)
2 -=- 02 - O Star.flac -=- CDDA (100%)
3 -=- 03 - Stuck On You.flac -=- CDDA (100%)
4 -=- 04 - This Circle.flac -=- CDDA (100%)

Summary 100.00% CDDA

89862516
#777Прoдолжительность: 00:06:43

Трек лист:Misery Business (Album Version)
Stop This Song (Love Sick Melody)
Код:
Код:
Exact Audio Copy V0.99 prebeta 5 from 4. May 2009

EAC extraction logfile from 4. January 2010, 1:41

Paramore / Misery Business

Used drive  : PLEXTOR DVDR   PX-750A   Adapter: 0  ID: 1

Read mode               : Secure
Utilize accurate stream : Yes
Defeat audio cache      : Yes
Make use of C2 pointers : No

Read offset correction                      : 102
Overread into Lead-In and Lead-Out          : No
Fill up missing offset samples with silence : Yes
Delete leading and trailing silent blocks   : No
Null samples used in CRC calculations       : Yes
Used interface                              : Native Win32 interface for Win NT & 2000

Used output format : Internal WAV Routines
Sample format      : 44.100 Hz; 16 Bit; Stereo

TOC of the extracted CD

     Track |   Start  |  Length  | Start sector | End sector
    ---------------------------------------------------------
        1  |  0:00.00 |  3:20.14 |         0    |    15013
        2  |  3:20.14 |  3:23.04 |     15014    |    30242

Range status and errors

Selected range

     Filename I:\AUDIO LAVIGNE\Paramore\Misery Business 2\Paramore - Misery Business.wav

     Peak level 100.0 %
     Range quality 100.0 %
     Copy CRC CA0C6A14
     Copy OK

No errors occurred

AccurateRip summary

Track  1  not present in database
Track  2  not present in database

None of the tracks are present in the AccurateRip database

End of status report
Код:
Код:
AUDIOCHECKER v2.0 beta (build 457) - by Dester -
~~~~~~~~~~~~~~~~~~~~~~~~~~~~~~~~~~
-=== НЕ РЕДАКТИРУЙТЕ ЭТОТ ФАЙЛ! ===-

Путь: ...\2007 - Misery Business

001 -=- 01 - Misery Business (Album Version).flac -=- CDDA (100%)
002 -=- 02 - Stop This Song (Love Sick Melody).flac -=- CDDA (99%)

Сводка 99,50% CDDA

72485828
#777Прoдолжительность: 00:03:34

Трек лист:Misery Business
Код:
Код:
Exact Audio Copy V0.99 prebeta 5 from 4. May 2009

EAC extraction logfile from 4. January 2010, 2:05

paramore / Misery Business

Used drive  : PLEXTOR DVDR   PX-750A   Adapter: 0  ID: 1

Read mode               : Secure
Utilize accurate stream : Yes
Defeat audio cache      : Yes
Make use of C2 pointers : No

Read offset correction                      : 102
Overread into Lead-In and Lead-Out          : No
Fill up missing offset samples with silence : Yes
Delete leading and trailing silent blocks   : No
Null samples used in CRC calculations       : Yes
Used interface                              : Native Win32 interface for Win NT & 2000

Used output format : Internal WAV Routines
Sample format      : 44.100 Hz; 16 Bit; Stereo

TOC of the extracted CD

     Track |   Start  |  Length  | Start sector | End sector
    ---------------------------------------------------------
        1  |  0:00.00 |  3:34.40 |         0    |    16089

Range status and errors

Selected range

     Filename I:\AUDIO LAVIGNE\Paramore\Misery Business 3\paramore - Misery Business.wav

     Peak level 100.0 %
     Range quality 99.9 %
     Copy CRC 8C7E6DCB
     Copy OK

No errors occurred

AccurateRip summary

Track  1  not present in database

None of the tracks are present in the AccurateRip database

End of status report
Код:
Код:
AUDIOCHECKER v2.0 beta (build 457) - by Dester -
~~~~~~~~~~~~~~~~~~~~~~~~~~~~~~~~~~
-=== НЕ РЕДАКТИРУЙТЕ ЭТОТ ФАЙЛ! ===-

Путь: ...\2007 - Misery Business (Promo)

001 -=- 01 - Misery Business.flac -=- CDDA (100%)

13811556
#777Прoдолжительность: 00:10:21

Трек лист:Misery Business (Single Version)
My Hero (Electronic Mix)
Stop This Song (Love Sick Melody)
Код:
Код:
Отчёт EAC об извлечении, выполненном 12. февраля 2008, 15:16 для диска:
Paramore / Misery Business (Single)

Дисковод: PLEXTOR DVDR   PX-750A   Adapter: 0  ID: 0
Режим чтения: Достоверный (C2: нет, Точный поток: да, Отключение кэша: да)
Коррекция смещения при чтении: 102
Способность читать области Lead-in и Lead-out : Нет

Выходной формат: Внутренние WAV-операции
                     44.100 Гц; 16 бит; стерео

Другие параметры:
    Заполнение пропущенных сэмплов тишиной : Да
    Удаление блоков с тишиной в начале и конце : Нет
    Встроенный Win32-интерфейс для Win NT/2000

Характеристики диапазона извлечения и сообщения об ошибках
Выбранный диапазон
     Имя файла C:\Documents and Settings\Admin\Мои документы\Моя музыка\Paramore - Discography\Paramore - Misery Business\Paramore - Misery Business (Single).wav

     Пиковый уровень 100.0 %
     Качество диапазона 100.0 %
     CRC 87BCD729
     Копирование... OK

Ошибок не произошло

Конец отчёта
Код:
Код:
AUDIOCHECKER v2.0 beta (build 457) - by Dester -
~~~~~~~~~~~~~~~~~~~~~~~~~~~~~~~~~~
-=== НЕ РЕДАКТИРУЙТЕ ЭТОТ ФАЙЛ! ===-

Путь: ...\2007 - Misery Business (Single)

001 -=- 01 - Misery Business (Single Version).flac -=- CDDA (100%)
002 -=- 02 - My Hero (Electronic Mix).flac -=- CDDA (100%)
003 -=- 03 - Stop This Song (Love Sick Melody).flac -=- CDDA (100%)

Сводка 100,00% CDDA

82476788
#777Прoдолжительность: 00:03:25

Трек лист:Hallelujah
Код:
Код:
Exact Audio Copy V0.99 prebeta 5 from 4. May 2009

EAC extraction logfile from 4. January 2010, 2:33

Paramore / Hallelujah

Used drive  : PLEXTOR DVDR   PX-750A   Adapter: 0  ID: 1

Read mode               : Secure
Utilize accurate stream : Yes
Defeat audio cache      : Yes
Make use of C2 pointers : No

Read offset correction                      : 102
Overread into Lead-In and Lead-Out          : No
Fill up missing offset samples with silence : Yes
Delete leading and trailing silent blocks   : No
Null samples used in CRC calculations       : Yes
Used interface                              : Native Win32 interface for Win NT & 2000

Used output format : Internal WAV Routines
Sample format      : 44.100 Hz; 16 Bit; Stereo

TOC of the extracted CD

     Track |   Start  |  Length  | Start sector | End sector
    ---------------------------------------------------------
        1  |  0:00.00 |  3:25.23 |         0    |    15397

Range status and errors

Selected range

     Filename I:\AUDIO LAVIGNE\Paramore\Hallelujah 1\Paramore - Hallelujah.wav

     Peak level 100.0 %
     Range quality 100.0 %
     Copy CRC 93EBB6D6
     Copy OK

No errors occurred

AccurateRip summary

Track  1  cannot be verified as accurate (confidence 1)  [B19399AB], AccurateRip returned [7F569753]

No tracks could be verified as accurate
You may have a different pressing from the one(s) in the database

End of status report
Код:
Код:
AUDIOCHECKER v2.0 beta (build 457) - by Dester -
~~~~~~~~~~~~~~~~~~~~~~~~~~~~~~~~~~
-=== НЕ РЕДАКТИРУЙТЕ ЭТОТ ФАЙЛ! ===-

Путь: ...\2007 - Hallelujah

001 -=- 01 - Hallelujah.flac -=- CDDA (100%)

60536084
#777Прoдолжительность: 00:06:50

Трек лист:Hallelujah
When It Rains (Demo Version)
Код:
Код:
Отчёт EAC об извлечении, выполненном 12. февраля 2008, 15:46 для диска:
Paramore / Hallelujah (Single)

Дисковод: PLEXTOR DVDR   PX-750A   Adapter: 0  ID: 0
Режим чтения: Достоверный (C2: нет, Точный поток: да, Отключение кэша: да)
Коррекция смещения при чтении: 102
Способность читать области Lead-in и Lead-out : Нет

Выходной формат: Внутренние WAV-операции
                     44.100 Гц; 16 бит; стерео

Другие параметры:
    Заполнение пропущенных сэмплов тишиной : Да
    Удаление блоков с тишиной в начале и конце : Нет
    Встроенный Win32-интерфейс для Win NT/2000

Характеристики диапазона извлечения и сообщения об ошибках
Выбранный диапазон
     Имя файла C:\Documents and Settings\Admin\Мои документы\Моя музыка\Paramore - Discography\Hallelujah\Paramore - Hallelujah (Single).wav

     Пиковый уровень 98.8 %
     Качество диапазона 99.9 %
     CRC 45E7501D
     Копирование... OK

Ошибок не произошло

Конец отчёта
Код:
Код:
AUDIOCHECKER v2.0 beta (build 457) - by Dester -
~~~~~~~~~~~~~~~~~~~~~~~~~~~~~~~~~~
-=== НЕ РЕДАКТИРУЙТЕ ЭТОТ ФАЙЛ! ===-

Путь: ...\2008 - Hallelujah (Single)

001 -=- 01 - Hallelujah .flac -=- CDDA (100%)
002 -=- 02 - When It Rains (Demo Version).flac -=- CDDA (100%)

Сводка 100,00% CDDA

37296676
#777Прoдолжительность: 00:03:11

Трек лист:CrushCrushCrush
Код:
Код:
Отчёт EAC об извлечении, выполненном 12. февраля 2008, 15:31 для диска:
Paramore / crushcrushcrush (single)

Дисковод: PLEXTOR DVDR   PX-750A   Adapter: 0  ID: 0
Режим чтения: Достоверный (C2: нет, Точный поток: да, Отключение кэша: да)
Коррекция смещения при чтении: 102
Способность читать области Lead-in и Lead-out : Нет

Выходной формат: Внутренние WAV-операции
                     44.100 Гц; 16 бит; стерео

Другие параметры:
    Заполнение пропущенных сэмплов тишиной : Да
    Удаление блоков с тишиной в начале и конце : Нет
    Встроенный Win32-интерфейс для Win NT/2000

Характеристики диапазона извлечения и сообщения об ошибках
Выбранный диапазон
     Имя файла C:\Documents and Settings\Admin\Мои документы\Моя музыка\Paramore - Discography\Paramore - crushcrushcrush\Paramore - crushcrushcrush (single).wav

     Пиковый уровень 100.0 %
     Качество диапазона 99.9 %
     CRC E9A650AB
     Копирование... OK

Ошибок не произошло

Конец отчёта
Код:
Код:
AUDIOCHECKER v2.0 beta (build 457) - by Dester -
~~~~~~~~~~~~~~~~~~~~~~~~~~~~~~~~~~
-=== НЕ РЕДАКТИРУЙТЕ ЭТОТ ФАЙЛ! ===-

Путь: ...\2008 - CrushCrushCrush (Single)

001 -=- 01 - CrushCrushCrush.flac -=- CDDA (100%)

221205348
#777Прoдолжительность: 00:08:51

Трек лист:Decode
Decode (Acoustic Version)
Код:
Код:
Exact Audio Copy V0.99 prebeta 5 from 4. May 2009

EAC extraction logfile from 4. January 2010, 2:24

Paramore / Decode

Used drive  : PLEXTOR DVDR   PX-750A   Adapter: 0  ID: 1

Read mode               : Secure
Utilize accurate stream : Yes
Defeat audio cache      : Yes
Make use of C2 pointers : No

Read offset correction                      : 102
Overread into Lead-In and Lead-Out          : No
Fill up missing offset samples with silence : Yes
Delete leading and trailing silent blocks   : No
Null samples used in CRC calculations       : Yes
Used interface                              : Native Win32 interface for Win NT & 2000

Used output format : Internal WAV Routines
Sample format      : 44.100 Hz; 16 Bit; Stereo

TOC of the extracted CD

     Track |   Start  |  Length  | Start sector | End sector
    ---------------------------------------------------------
        1  |  0:00.00 |  4:23.62 |         0    |    19786
        2  |  4:23.62 |  4:27.38 |     19787    |    39849

Range status and errors

Selected range

     Filename I:\AUDIO LAVIGNE\Paramore\Decode\Paramore - Decode.wav

     Peak level 99.4 %
     Range quality 100.0 %
     Copy CRC BB92FF9C
     Copy OK

No errors occurred

AccurateRip summary

Track  1  accurately ripped (confidence 3)  [EF521B6A]
Track  2  accurately ripped (confidence 2)  [24BD8F76]

All tracks accurately ripped

End of status report
Код:
Код:
AUDIOCHECKER v2.0 beta (build 457) - by Dester -
~~~~~~~~~~~~~~~~~~~~~~~~~~~~~~~~~~
-=== НЕ РЕДАКТИРУЙТЕ ЭТОТ ФАЙЛ! ===-

Путь: ...\2008 - Decode

001 -=- 01 - Decode.flac -=- CDDA (99%)
002 -=- 02 - Decode (Acoustic Version).flac -=- CDDA (99%)

Сводка 99,00% CDDA

243878692
#777Прoдолжительность: 00:04:22

Трек лист:Decode
Код:
Код:
Exact Audio Copy V0.99 prebeta 5 from 4. May 2009

EAC extraction logfile from 4. January 2010, 12:38

Paramore / Decode (Promo)

Used drive  : PLEXTOR DVDR   PX-750A   Adapter: 0  ID: 1

Read mode               : Secure
Utilize accurate stream : Yes
Defeat audio cache      : Yes
Make use of C2 pointers : No

Read offset correction                      : 102
Overread into Lead-In and Lead-Out          : No
Fill up missing offset samples with silence : Yes
Delete leading and trailing silent blocks   : No
Null samples used in CRC calculations       : Yes
Used interface                              : Native Win32 interface for Win NT & 2000

Used output format : Internal WAV Routines
Sample format      : 44.100 Hz; 16 Bit; Stereo

TOC of the extracted CD

     Track |   Start  |  Length  | Start sector | End sector
    ---------------------------------------------------------
        1  |  0:00.00 |  4:22.51 |         0    |    19700

Range status and errors

Selected range

     Filename I:\AUDIO LAVIGNE\Paramore\Decode Promo\Paramore - Decode (Promo).wav

     Peak level 100.0 %
     Range quality 99.9 %
     Copy CRC ABAF9F09
     Copy OK

No errors occurred

AccurateRip summary

Track  1  not present in database

None of the tracks are present in the AccurateRip database

End of status report
Код:
Код:
AUDIOCHECKER v2.0 beta (build 457) - by Dester -
~~~~~~~~~~~~~~~~~~~~~~~~~~~~~~~~~~
-=== НЕ РЕДАКТИРУЙТЕ ЭТОТ ФАЙЛ! ===-

Путь: ...\2008 - Decode (Promo)

001 -=- 01 - Decode.flac -=- CDDA (100%)

144315140
#777Прoдолжительность: 00:08:02

Трек лист:Ignorance
Decode
Код:
Код:
Exact Audio Copy V0.99 prebeta 5 from 4. May 2009

EAC extraction logfile from 4. January 2010, 3:33

Paramore / Brand New Eyes

Used drive  : PLEXTOR DVDR   PX-750A   Adapter: 0  ID: 1

Read mode               : Secure
Utilize accurate stream : Yes
Defeat audio cache      : Yes
Make use of C2 pointers : No

Read offset correction                      : 102
Overread into Lead-In and Lead-Out          : No
Fill up missing offset samples with silence : Yes
Delete leading and trailing silent blocks   : No
Null samples used in CRC calculations       : Yes
Used interface                              : Native Win32 interface for Win NT & 2000

Used output format : Internal WAV Routines
Sample format      : 44.100 Hz; 16 Bit; Stereo

TOC of the extracted CD

     Track |   Start  |  Length  | Start sector | End sector
    ---------------------------------------------------------
        1  |  0:00.00 |  3:40.08 |         0    |    16507
        2  |  3:40.08 |  4:21.73 |     16508    |    36155

Range status and errors

Selected range

     Filename I:\AUDIO LAVIGNE\Paramore\Brand New Eyes Promo Japan\Paramore - Brand New Eyes.wav

     Peak level 100.0 %
     Range quality 100.0 %
     Copy CRC C0478B06
     Copy OK

No errors occurred

AccurateRip summary

Track  1  not present in database
Track  2  not present in database

None of the tracks are present in the AccurateRip database

End of status report
Код:
Код:
AUDIOCHECKER v2.0 beta (build 457) - by Dester -
~~~~~~~~~~~~~~~~~~~~~~~~~~~~~~~~~~
-=== НЕ РЕДАКТИРУЙТЕ ЭТОТ ФАЙЛ! ===-

Путь: ...\2009 - Brand New Eyes (Promo Japan)

001 -=- 01 - Ignorance.flac -=- CDDA (99%)
002 -=- 02 - Decode.flac -=- CDDA (100%)

Сводка 99,50% CDDA

172727588
#777Прoдолжительность: 00:04:13

Трек лист:Brick By Boring Brick
Код:
Код:
Exact Audio Copy V0.99 prebeta 5 from 4. May 2009

EAC extraction logfile from 4. January 2010, 13:03

Paramore /  Brick by Boring Brick

Used drive  : PLEXTOR DVDR   PX-750A   Adapter: 0  ID: 1

Read mode               : Secure
Utilize accurate stream : Yes
Defeat audio cache      : Yes
Make use of C2 pointers : No

Read offset correction                      : 102
Overread into Lead-In and Lead-Out          : No
Fill up missing offset samples with silence : Yes
Delete leading and trailing silent blocks   : No
Null samples used in CRC calculations       : Yes
Used interface                              : Native Win32 interface for Win NT & 2000

Used output format : Internal WAV Routines
Sample format      : 44.100 Hz; 16 Bit; Stereo

TOC of the extracted CD

     Track |   Start  |  Length  | Start sector | End sector
    ---------------------------------------------------------
        1  |  0:00.00 |  4:13.71 |         0    |    19045

Range status and errors

Selected range

     Filename I:\AUDIO LAVIGNE\Paramore\Brick by Boring Brick Promo\Paramore -  Brick by Boring Brick.wav

     Peak level 100.0 %
     Range quality 100.0 %
     Copy CRC A99B9391
     Copy OK

No errors occurred

AccurateRip summary

Track  1  not present in database

None of the tracks are present in the AccurateRip database

End of status report
Код:
Код:
AUDIOCHECKER v2.0 beta (build 457) - by Dester -
~~~~~~~~~~~~~~~~~~~~~~~~~~~~~~~~~~
-=== НЕ РЕДАКТИРУЙТЕ ЭТОТ ФАЙЛ! ===-

Путь: ...\2009 - Brick By Boring Brick (Promo)

001 -=- 01 - Brick By Boring Brick.flac -=- CDDA (100%)

159376052
#777Прoдолжительность: 00:03:38

Трек лист:Ignorance
Код:
Код:
Exact Audio Copy V0.99 prebeta 5 from 4. May 2009

EAC extraction logfile from 4. January 2010, 0:36

Paramore / Ignorance

Used drive  : PLEXTOR DVDR   PX-750A   Adapter: 0  ID: 1

Read mode               : Secure
Utilize accurate stream : Yes
Defeat audio cache      : Yes
Make use of C2 pointers : No

Read offset correction                      : 102
Overread into Lead-In and Lead-Out          : No
Fill up missing offset samples with silence : Yes
Delete leading and trailing silent blocks   : No
Null samples used in CRC calculations       : Yes
Used interface                              : Native Win32 interface for Win NT & 2000

Used output format : Internal WAV Routines
Sample format      : 44.100 Hz; 16 Bit; Stereo

TOC of the extracted CD

     Track |   Start  |  Length  | Start sector | End sector
    ---------------------------------------------------------
        1  |  0:00.00 |  3:38.07 |         0    |    16356

Range status and errors

Selected range

     Filename I:\AUDIO LAVIGNE\Paramore\Ignorance 1\Paramore - Ignorance.wav

     Peak level 100.0 %
     Range quality 100.0 %
     Copy CRC D1B4C40B
     Copy OK

No errors occurred

AccurateRip summary

Track  1  accurately ripped (confidence 2)  [2F6B91D2]

All tracks accurately ripped

End of status report
Код:
Код:
AUDIOCHECKER v2.0 beta (build 457) - by Dester -
~~~~~~~~~~~~~~~~~~~~~~~~~~~~~~~~~~
-=== НЕ РЕДАКТИРУЙТЕ ЭТОТ ФАЙЛ! ===-

Путь: ...\2009 - Ignorance

001 -=- 01 - Ignorance.flac -=- CDDA (100%)

128323940
#777Прoдолжительность: 00:07:21

Трек лист:Ignorance
Ignorance (Acoustic Version)
Код:
Код:
Exact Audio Copy V0.99 prebeta 5 from 4. May 2009

EAC extraction logfile from 4. January 2010, 1:27

Paramore / Ignorance

Used drive  : PLEXTOR DVDR   PX-750A   Adapter: 0  ID: 1

Read mode               : Secure
Utilize accurate stream : Yes
Defeat audio cache      : Yes
Make use of C2 pointers : No

Read offset correction                      : 102
Overread into Lead-In and Lead-Out          : No
Fill up missing offset samples with silence : Yes
Delete leading and trailing silent blocks   : No
Null samples used in CRC calculations       : Yes
Used interface                              : Native Win32 interface for Win NT & 2000

Used output format : Internal WAV Routines
Sample format      : 44.100 Hz; 16 Bit; Stereo

TOC of the extracted CD

     Track |   Start  |  Length  | Start sector | End sector
    ---------------------------------------------------------
        1  |  0:00.00 |  3:40.07 |         0    |    16506
        2  |  3:40.07 |  3:41.03 |     16507    |    33084

Range status and errors

Selected range

     Filename I:\AUDIO LAVIGNE\Paramore\Ignorance 2\Paramore - Ignorance.wav

     Peak level 100.0 %
     Range quality 100.0 %
     Copy CRC AA0C99C6
     Copy OK

No errors occurred

AccurateRip summary

Track  1  not present in database
Track  2  not present in database

None of the tracks are present in the AccurateRip database

End of status report
Код:
Код:
AUDIOCHECKER v2.0 beta (build 457) - by Dester -
~~~~~~~~~~~~~~~~~~~~~~~~~~~~~~~~~~
-=== НЕ РЕДАКТИРУЙТЕ ЭТОТ ФАЙЛ! ===-

Путь: ...\2009 - Ignorance (Single)

001 -=- 01 - Ignorance.flac -=- CDDA (100%)
002 -=- 02 - Ignorance (Acoustic Version).flac -=- CDDA (100%)

Сводка 100,00% CDDA

32941252
#777Прoдолжительность: 00:03:43

Трек лист:That's What You Get
Код:
Код:
Exact Audio Copy V0.99 prebeta 5 from 4. May 2009

EAC extraction logfile from 4. January 2010, 2:10

Paramore / That's What You Get

Used drive  : PLEXTOR DVDR   PX-750A   Adapter: 0  ID: 1

Read mode               : Secure
Utilize accurate stream : Yes
Defeat audio cache      : Yes
Make use of C2 pointers : No

Read offset correction                      : 102
Overread into Lead-In and Lead-Out          : No
Fill up missing offset samples with silence : Yes
Delete leading and trailing silent blocks   : No
Null samples used in CRC calculations       : Yes
Used interface                              : Native Win32 interface for Win NT & 2000

Used output format : Internal WAV Routines
Sample format      : 44.100 Hz; 16 Bit; Stereo

TOC of the extracted CD

     Track |   Start  |  Length  | Start sector | End sector
    ---------------------------------------------------------
        1  |  0:00.00 |  3:43.19 |         0    |    16743

Range status and errors

Selected range

     Filename I:\AUDIO LAVIGNE\Paramore\That's What You Get\Paramore - That's What You Get.wav

     Peak level 100.0 %
     Range quality 100.0 %
     Copy CRC 58C972A8
     Copy OK

No errors occurred

AccurateRip summary

Track  1  cannot be verified as accurate (confidence 1)  [2A195B0B], AccurateRip returned [6B3A3966]

No tracks could be verified as accurate
You may have a different pressing from the one(s) in the database

End of status report
Код:
Код:
AUDIOCHECKER v2.0 beta (build 457) - by Dester -
~~~~~~~~~~~~~~~~~~~~~~~~~~~~~~~~~~
-=== НЕ РЕДАКТИРУЙТЕ ЭТОТ ФАЙЛ! ===-

Путь: ...\2009 - That's What You Get

001 -=- 01 - That's What You Get.flac -=- CDDA (100%)

244544276
#777Прoдолжительность: 00:03:39

Трек лист:That's What You Get (Radio Edit)
Код:
Код:
Exact Audio Copy V0.99 prebeta 5 from 4. May 2009

EAC extraction logfile from 4. January 2010, 12:11

Paramore / That's What You Get (Promo)

Used drive  : ATAPI   BD  O  DH4O1S   Adapter: 3  ID: 0

Read mode               : Secure
Utilize accurate stream : Yes
Defeat audio cache      : Yes
Make use of C2 pointers : No

Read offset correction                      : 6
Overread into Lead-In and Lead-Out          : No
Fill up missing offset samples with silence : Yes
Delete leading and trailing silent blocks   : No
Null samples used in CRC calculations       : Yes
Used interface                              : Native Win32 interface for Win NT & 2000

Used output format : Internal WAV Routines
Sample format      : 44.100 Hz; 16 Bit; Stereo

TOC of the extracted CD

     Track |   Start  |  Length  | Start sector | End sector
    ---------------------------------------------------------
        1  |  0:00.00 |  3:39.63 |         0    |    16487

Range status and errors

Selected range

     Filename I:\AUDIO LAVIGNE\Paramore\That's What You Get Promo\Paramore - That's What You Get (Promo).wav

     Peak level 100.0 %
     Range quality 99.9 %
     Copy CRC 86B4B77A
     Copy OK

No errors occurred

AccurateRip summary

Track  1  not present in database

None of the tracks are present in the AccurateRip database

End of status report
Код:
Код:
AUDIOCHECKER v2.0 beta (build 457) - by Dester -
~~~~~~~~~~~~~~~~~~~~~~~~~~~~~~~~~~
-=== НЕ РЕДАКТИРУЙТЕ ЭТОТ ФАЙЛ! ===-

Путь: ...\2009 - That's What You Get (Promo)

001 -=- 01 - That's What You Get (Radio Edit).flac -=- CDDA (100%)

52771700

#777Описание:
Paramore — американская рок-группа, которая сформировалась во Франклине, штат Теннесси, США в 2004 году; в её состав вошли Хэйли Уильямс (вокал, клавишные), Джош Фарро (гитара, бэк-вокал), Тэйлор Йорк (ритм-гитара), Джереми Дэвис (бас-гитара) и Зак Фарро (ударные).

Группа выпустила свой дебютный альбом All We Know Is Falling в 2005 году. Второй альбом Riot! вышел в 2007 году и впоследствии получил платиновый статус в США, а в Великобритании и Ирландии стал золотым. Третий альбом Brand New Eyes вышел 29 сентября 2009 года, возглавил хит-парады многих стран мира, включая Австралию и Великобританию, и считается самым на данный момент успешным в истории группы.

Группа получила название Paramore, которое является производной от латинского слова «любовник»: как только участники группы узнали значение омонима paramour(любовник), они решили назваться Paramore, оставив первоначальное написание. Первой совместно написанной песней была «Conspiracy», которая позже вошла в их дебютный альбом. В течение следующих лет группа выступала на различных концертных площадках.

Релиз альбома All We Know Is Falling состоялся 24 июля 2005 и достиг 30 строчки чарта Billboard. Первым синглом группы стал Pressure, режиссером видео был Шейн Дрейк, но песня провалилась во всех хит-парадах. В июле группа выпустила второй сингл Emergency, режиссером видео снова стал Шейн Дрейк. Видео на эту песню показало группу с другой стороны. Третий сингл All We Know выходил только в ограниченное эфирное время и представлял собой нарезку из живых выступлений и съемок за сценой.

В январе 2006 группа приняла участие в Winter Go West Tour, и ребята играли на одной сцене с группами Amber Pacific и The Lashes, а в феврале Хэйли приняла участие в записи песни «Keep Dreaming Upside Down» группы October Fall. Весной 2006 Paramore выступали на разогреве у групп Bayside и The Rocket Summer. Тур по Великобритании длился с 5 по 15 октября 2006, последний концерт состоялся в Лондоне в клубе Mean Fiddler. Потом группа записала кавер-версию песни Foo Fighters My Hero, которая вошла в саундтрек к фильму Возвращение Супермена, вышедшего в прокат 26 июня 2006. Летом того же года Paramore несколько раз выступили в рамках Warped Tour. Первый сольный тур группы по США начался 2 августа 2006, на заключительном концерте в родном городе Нэшвиле на одну сцену с ребятами вышли This Providence, Cute Is What We Aim For, и Hit the Lights. В этом же году они были признаны «лучшей новой группой», а Уилльямс заняла второе место в списке «самых сексуальных девушек», по версии читателей британского журнала Kerrang!

В январе 2007 группа приступила к записи своего второго альбома Riot!, но в марте им пришлось продолжить уже без гитариста Хантера Лэмба (который покинул группу в начале года. чтобы жениться); так что Джошу Фарро пришлось записывать партии на двух гитарах. Место Лэмба теперь занял Тэйлор Йорк, который раньше был участником группы братьев Фарро, ещё до их знакомства с Хэйли Уилльямс. Прежде чем группа начала работать с продюсерами Нилом Эйвроном и Ховардом Бенсоном, Paramore записали Riot! с Дэвидом Бэгдетом, продюсером из Нью Джерси. Релиз альбома состоялся 12 июня 2007. Riot! занял 20 место в чарте Billboard 200, 24 место в чарте Великобритании и разошелся тиражом в 44000 в первую неделю в США. Название Riot! было выбрано потому что означает «неожиданный выброс неконтролируемых эмоций», и это было слово, которое «все подытожило». Первый сингл с этого альбома, Misery Business, был выпущен 21 июня 2007, и по словам Хэйли Уилльямс «является самой честной песней из всех, что я когда-либо писала, а ребята с помощью музыки передали все эмоции». Далее песня Decode стала саундтреком к фильму «Сумерки». После этого их популярность возросла.

Третий альбом Brand New Eyes вышел 29 сентября 2009 года на Fuelled By Ramen Records, возглавил хит-парады многих стран мира и получил высокие оценки критиков. В частности, журнал Kerrang! дал ему оценку 4/5; автор рецензии Дэн Слессор завершил её утверждением : «Это альбом, который убедительно доказывает: Paramore — серьёзные претенденты на покорение вершин истинного рок-величия».
Правила, инструкции, FAQ!!!
Торрент  Добавлен [16 мар 2014, 00:55] Скачать торрент Магнет ссылка
Скачать торрент
[ Размер 32.81 КБ / Просмотров 49 ]

Статус  
 
Размер  3.69 ГБ
Приватный: Нет (DHT включён)
.torrent скачан  0
 


     Отправить личное сообщение
   
Страница 1 из 1
Показать сообщения за:  Поле сортировки  
Начать новую тему Ответить на тему


Сейчас этот форум просматривают: нет зарегистрированных пользователей и гости: 0


Вы не можете начинать темы
Вы не можете отвечать на сообщения
Вы не можете редактировать свои сообщения
Вы не можете удалять свои сообщения
Вы не можете добавлять вложения

Перейти:  
cron