Начать новую тему Ответить на тему
Статистика раздачи
Размер: 212.31 МБ | Добавлен: 16 мар 2014, 00:10 | Скачали: 0
Сидеров: 1  [0 байт/сек]    Личеров: 0  [0 байт/сек]
Пред. тема | След. тема 

Автор
Сообщение

СообщениеДобавлено: 16 мар 2014, 00:10 

Ответить с цитатой 

Otis Waygood - Ten Light Claps And A Scream (1971) Reissue 2009

Жанр: Jaz Rock/Blues/Progressive rock
Год: 1971
Страна: South Africa
Released: 2009/Germany
Label: Shadoks Music
Catalog#: 108
Аудио кодек: APE
Тип рипа: image+.cue
Битрейт аудио: lossless
Продолжительность: 00:32:54
Источник-релизер: alex752
Scans: в раздаче
Треклист:
01. A Madman's Cry (4:24)
02. Straight Ahead (2:55)
03. I Left My Skull In San Francisco (3:49)
04. Easy Way (5:19)
05. The Higher I Go (1:43)
06. S.H.a.K. (3:06)
07. Devil Bones (2:40)
08. You Can Do (part 1) (4:20)
09. You Can Do (part 2) (4:38)

Musicians:
- Rob Zipper - vocals, guitars, saxophones
- Leigh Sagar - guitars, organ, Hawaiian guitar
- Benny Miller - guitars
- Alan Zipper - bass
- Ivor Rubenstein - vocals, percussion

Album >>>
Otis Waygood (Blues Band) Biography >>>
Код:
Код:
Exact Audio Copy V1.0 beta 1 from 15. November 2010

EAC extraction logfile from 12. January 2011, 18:07

Otis Waygood / Ten Light Claps And A Scream

Used drive  : TSSTcorpDVD+-RW TS-L532B   Adapter: 1  ID: 0

Read mode               : Secure
Utilize accurate stream : Yes
Defeat audio cache      : Yes
Make use of C2 pointers : No

Read offset correction                      : 704
Overread into Lead-In and Lead-Out          : No
Fill up missing offset samples with silence : Yes
Delete leading and trailing silent blocks   : No
Null samples used in CRC calculations       : Yes
Used interface                              : Native Win32 interface for Win NT & 2000

Used output format : Internal WAV Routines
Sample format      : 44.100 Hz; 16 Bit; Stereo

TOC of the extracted CD

     Track |   Start  |  Length  | Start sector | End sector
    ---------------------------------------------------------
        1  |  0:00.00 |  4:23.69 |         0    |    19793
        2  |  4:23.69 |  2:55.33 |     19794    |    32951
        3  |  7:19.27 |  3:49.19 |     32952    |    50145
        4  | 11:08.46 |  5:18.69 |     50146    |    74064
        5  | 16:27.40 |  1:42.72 |     74065    |    81786
        6  | 18:10.37 |  3:05.60 |     81787    |    95721
        7  | 21:16.22 |  2:40.00 |     95722    |   107721
        8  | 23:56.22 |  4:19.58 |    107722    |   127204
        9  | 28:16.05 |  4:37.59 |    127205    |   148038

Range status and errors

Selected range

     Filename C:\Documents and Settings\VB\My Documents\BARIN99\Otis Waygood - Ten Light Claps And A Scream\Otis Waygood - Ten Light Claps And A Scream.wav

     Peak level 97.7 %
     Extraction speed 0.4 X
     Range quality 100.0 %
     Copy CRC 6B34F831
     Copy OK

No errors occurred

AccurateRip summary

Track  1  accurately ripped (confidence 1)  [1805AB4A]
Track  2  accurately ripped (confidence 1)  [D14CC0E2]
Track  3  accurately ripped (confidence 1)  [D2052E35]
Track  4  accurately ripped (confidence 1)  [7E79BA49]
Track  5  accurately ripped (confidence 1)  [97B56BE9]
Track  6  accurately ripped (confidence 1)  [E39E1F3E]
Track  7  accurately ripped (confidence 1)  [95FC5B51]
Track  8  accurately ripped (confidence 1)  [491E1DF0]
Track  9  accurately ripped (confidence 1)  [B591D6AF]

All tracks accurately ripped

End of status report
Код:
Код:
-----------------------

DON'T MODIFY THIS FILE

-----------------------

PERFORMER: auCDtect Task Manager, ver. 1.6.0 RC1 build 1.6.0.1
Copyright (c) 2008-2010 y-soft. All rights reserved
http:/y-soft.org

ANALYZER: auCDtect: CD records authenticity detector, version 0.8.2
Copyright (c) 2004 Oleg Berngardt. All rights reserved.
Copyright (c) 2004 Alexander Djourik. All rights reserved.

FILE: Otis Waygood - Ten Light Claps And A Scream.ape
  Size: 209351636 Hash: 4D8D97617EA6CD61199CD57205D37334 Accuracy: -m0
  Conclusion: CDDA 100%
  Signature: 62574D5B3640B4FF791E8F40265520299F181206
Правила, инструкции, FAQ!!!
Торрент  Добавлен [16 мар 2014, 00:10] Скачать торрент Магнет ссылка
Скачать торрент
[ Размер 17.8 КБ / Просмотров 27 ]

Статус  
 
Размер  212.31 МБ
Приватный: Нет (DHT включён)
.torrent скачан  0
 


     Отправить личное сообщение
   
Страница 1 из 1
Показать сообщения за:  Поле сортировки  
Начать новую тему Ответить на тему


Сейчас этот форум просматривают: нет зарегистрированных пользователей и гости: 0


Вы не можете начинать темы
Вы не можете отвечать на сообщения
Вы не можете редактировать свои сообщения
Вы не можете удалять свои сообщения
Вы не можете добавлять вложения

Перейти:  
cron