Начать новую тему Ответить на тему
Статистика раздачи
Размер: 467.09 МБ | Добавлен: 01 июл 2017, 08:40 | Скачали: 1
Сидеров: 8  [0 байт/сек]    Личеров: 2  [0 байт/сек]
Пред. тема | След. тема 

Автор
Сообщение

СообщениеДобавлено: 01 июл 2017, 08:40 

Ответить с цитатой 

Oren Lavie / Bedroom Crimes
Формат записи/Источник записи: [TR24][OF]
Наличие водяных знаков: Нет
Год издания/переиздания диска: 2017
Жанр: Indie/Alternative, Singer/Songwriter
Продолжительность: 00:46:12
Наличие сканов в содержимом раздачи: Нет
Треклист:
01. Did You Really Say No - Oren Lavie feat. Vanessa Paradis
02. Breathing Fine - Oren Lavie
03. Second Hand Lovers - Oren Lavie
04. Look At Her Go - Oren Lavie
05. Sonata Sentimental #1 / You've Changed - Oren Lavie
06. The Passion Song - Oren Lavie
07. Sonata Sentimental #2 / Bedroom Crimes - Oren Lavie
08. Something Real / Did You feel It Too? - Oren Lavie
09. Autopsy Report - Oren Lavie
10. Sonata Sentimental #3 / I Dream Of The Water Woman - Oren Lavie
11. Note To Self - Oren Lavie
12. Her Morning Elegance - Oren Lavie
Контейнер: FLAC (*.flac)
Тип рипа: tracks
Разрядность: 24/44,1
Формат: WAV (flac.ape.wv)
Количество каналов: 2.0
Код:
foobar2000 1.3.14 / Замер динамического диапазона (DR) 1.1.1
Дата отчёта:  2017-06-11 09:54:36
--------------------------------------------------------------------------------
Анализ:   Oren Lavie feat. Vanessa Paradis / Bedroom Crimes (1)
          Oren Lavie / Bedroom Crimes (2-12)
--------------------------------------------------------------------------------
DR         Пики         RMS           Продолжительность трека
--------------------------------------------------------------------------------
DR6       -0.10 дБ    -9.82 дБ      4:14 01-Did You Really Say No
DR8       -0.10 дБ   -11.58 дБ      4:18 02-Breathing Fine
DR8       -0.10 дБ   -10.13 дБ      3:56 03-Second Hand Lovers
DR5       -0.10 дБ    -7.24 дБ      4:02 04-Look At Her Go
DR6       -0.10 дБ    -9.57 дБ      2:34 05-Sonata Sentimental #1 / You've Changed
DR7       -0.10 дБ    -9.15 дБ      4:36 06-The Passion Song
DR8       -0.10 дБ   -10.55 дБ      2:58 07-Sonata Sentimental #2 / Bedroom Crimes
DR8       -0.10 дБ   -11.06 дБ      3:39 08-Something Real / Did You feel It Too?
DR5       -0.10 дБ    -8.24 дБ      4:23 09-Autopsy Report
DR13      -0.10 дБ   -16.36 дБ      3:06 10-Sonata Sentimental #3 / I Dream Of The Water Woman
DR12      -0.10 дБ   -14.85 дБ      4:50 11-Note To Self
DR6       -0.70 дБ    -8.22 дБ      3:36 12-Her Morning Elegance
--------------------------------------------------------------------------------
Количество треков: 12
Реальные значения DR: DR8
Частота:   44100 Гц
Каналов:   2
Разрядность:   24
Битрейт:   862 кбит/с
Кодек:   FLAC
================================================================================
Источник (релизер): israbox
Правила, инструкции, FAQ!!!
Торрент  Добавлен [01 июл 2017, 08:40] Скачать торрент Магнет ссылка
Скачать торрент
[ Размер 37.79 КБ / Просмотров 99 ]

Статус
Проверен 
 
Размер  467.09 МБ
Приватный: Нет (DHT включён)
.torrent скачан  1
 


     Отправить личное сообщение
   
Страница 1 из 1
Показать сообщения за:  Поле сортировки  
Начать новую тему Ответить на тему


Сейчас этот форум просматривают: нет зарегистрированных пользователей и гости: 0


Вы не можете начинать темы
Вы не можете отвечать на сообщения
Вы не можете редактировать свои сообщения
Вы не можете удалять свои сообщения
Вы не можете добавлять вложения

Перейти:  
cron
cron