Начать новую тему Ответить на тему
Статистика раздачи
Размер: 342.62 МБ | Добавлен: 16 мар 2014, 00:40 | Скачали: 6
Сидеров: 5  [0 байт/сек]    Личеров: 0  [0 байт/сек]
Пред. тема | След. тема 

Автор
Сообщение

СообщениеДобавлено: 16 мар 2014, 00:40 

Ответить с цитатой 

Oomph! - GlaubeLiebeTod (2006)

Год: 2006
Жанр: Industrial
Продолжительность: 00:44:35.33

Кодек: FLAC
Битрейт: Lossless

Треклист:
1. Gott ist ein Popstar
2. Das letzte Streichholz
3. Träumst du
4. Die Schlinge
5. Du willst es doch auch
6. Eine Frau spricht im Schlaf
7. Mein Schatz
8. Dreh dich nicht um
9. Land im Sicht
10. Tanz in den Tod
11. Ich will deine Seele
12. Zuviel Liebe kann dich töten
Код:
Код:
Exact Audio Copy V1.0 beta 3 from 29. August 2011

EAC extraction logfile from 1. March 2014, 8:17

Oomph! / GlaubeLiebeTod

Used drive  : hp      DVD RW AD-7740H   Adapter: 2  ID: 0

Read mode               : Secure
Utilize accurate stream : Yes
Defeat audio cache      : Yes
Make use of C2 pointers : No

Read offset correction                      : 48
Overread into Lead-In and Lead-Out          : No
Fill up missing offset samples with silence : Yes
Delete leading and trailing silent blocks   : No
Null samples used in CRC calculations       : Yes
Used interface                              : Installed external ASPI interface

Used output format              : User Defined Encoder
Selected bitrate                : 1024 kBit/s
Quality                         : High
Add ID3 tag                     : No
Command line compressor         : C:\Program Files (x86)\Exact Audio Copy\Flac\flac.exe
Additional command line options : -V -8 -T "Date=%year%" -T "Genre=%genre%" %source%

TOC of the extracted CD

     Track |   Start  |  Length  | Start sector | End sector
    ---------------------------------------------------------
        1  |  0:00.00 |  3:55.16 |         0    |    17640
        2  |  3:55.16 |  3:33.30 |     17641    |    33645
        3  |  7:28.46 |  3:54.09 |     33646    |    51204
        4  | 11:22.55 |  3:56.12 |     51205    |    68916
        5  | 15:18.67 |  3:27.48 |     68917    |    84489
        6  | 18:46.40 |  3:57.31 |     84490    |   102295
        7  | 22:43.71 |  3:37.64 |    102296    |   118634
        8  | 26:21.60 |  3:29.46 |    118635    |   134355
        9  | 29:51.31 |  4:08.01 |    134356    |   152956
       10  | 33:59.32 |  3:27.27 |    152957    |   168508
       11  | 37:26.59 |  3:21.27 |    168509    |   183610
       12  | 40:48.11 |  3:47.22 |    183611    |   200657
       13  | 47:07.33 | 10:41.21 |    212058    |   260153

Range status and errors

Selected range

     Filename D:\Конвертация\Oomph! - GlaubeLiebeTod.wav

     Peak level 99.8 %
     Extraction speed 1.9 X
     Range quality 100.0 %
     Copy CRC 6FB310A5
     Copy OK

No errors occurred

AccurateRip summary

Track  1  accurately ripped (confidence 3)  [0AC0C2F1]  (AR v1)
Track  2  accurately ripped (confidence 3)  [40C07464]  (AR v1)
Track  3  accurately ripped (confidence 3)  [F16BC74F]  (AR v1)
Track  4  accurately ripped (confidence 3)  [D3B98563]  (AR v1)
Track  5  accurately ripped (confidence 3)  [C7D1216D]  (AR v1)
Track  6  accurately ripped (confidence 3)  [727D3CAD]  (AR v1)
Track  7  accurately ripped (confidence 3)  [AC1D9D09]  (AR v1)
Track  8  accurately ripped (confidence 3)  [630F2530]  (AR v1)
Track  9  accurately ripped (confidence 3)  [A1EB8D0C]  (AR v1)
Track 10  accurately ripped (confidence 3)  [C40CA532]  (AR v1)
Track 11  accurately ripped (confidence 3)  [1459C7B2]  (AR v1)
Track 12  accurately ripped (confidence 3)  [FF563AC4]  (AR v1)

All tracks accurately ripped

End of status report

---- CUETools DB Plugin V2.1.3

[CTDB TOCID: hpcJTnwUBjfCj.8FXlwFm15pK_8-] found, Submit result: hpcJTnwUBjfCj.8FXlwFm15pK_8- has been confirmed
[2d943045] (18/18) Accurately ripped

==== Log checksum 7BC826DE3A01EC9BB837A8882910935BE9E94E53D236A35FB2BC91AEFD466877 ====
Код:
Код:
-----------------------

DON'T MODIFY THIS FILE

-----------------------

PERFORMER: auCDtect Task Manager, ver. 1.6.0 RC1 build 1.6.0.1
Copyright (c) 2008-2010 y-soft. All rights reserved
http:/y-soft.org

ANALYZER: auCDtect: CD records authenticity detector, version 0.8.2
Copyright (c) 2004 Oleg Berngardt. All rights reserved.
Copyright (c) 2004 Alexander Djourik. All rights reserved.

FILE: Oomph! - GlaubeLiebeTod.flac
  Size: 359073685 Hash: BAD84036992A11376B4F65A9EDA78C99 Accuracy: -m0
  Conclusion: CDDA 100%
  Signature: DBD579CB330C0CC58A2300D471F4BF9D2968B11D
Правила, инструкции, FAQ!!!
Торрент  Добавлен [16 мар 2014, 00:40] Скачать торрент Магнет ссылка
Скачать торрент
[ Размер 14.4 КБ / Просмотров 62 ]

Статус  
 
Размер  342.62 МБ
Приватный: Нет (DHT включён)
.torrent скачан  6
 


     Отправить личное сообщение
   
Страница 1 из 1
Показать сообщения за:  Поле сортировки  
Начать новую тему Ответить на тему


Сейчас этот форум просматривают: нет зарегистрированных пользователей и гости: 0


Вы не можете начинать темы
Вы не можете отвечать на сообщения
Вы не можете редактировать свои сообщения
Вы не можете удалять свои сообщения
Вы не можете добавлять вложения

Перейти:  
cron
cron