Начать новую тему Ответить на тему
Статистика раздачи
Размер: 281.71 МБ | Добавлен: 16 мар 2014, 00:37 | Скачали: 15
Сидеров: 1  [0 байт/сек]    Личеров: 1  [0 байт/сек]
Пред. тема | След. тема 

Автор
Сообщение

СообщениеДобавлено: 16 мар 2014, 00:37 

Ответить с цитатой 

Of Mice & Men
- Restoring Force


Год выпуска: 2014
Жанр: Metalcore | Nu Metal | Post-Hardcore
Продолжительность: 00:38:42
Лейбл: Rise
Тип издания: Альбом
Страна: США


[font=cursive]Треклист:

01. Public Service Announcement
02. Feels Like Forever
03. Bones Exposed
04. Would You Still Be There
05. Glass Hearts
06. Another You
07. Break Free
08. You Make Me Sick
09. Identity Disorder
10. You're Not Alone
11. Space Enough to Grow


Код:
Код:
Exact Audio Copy V1.0 beta 3 from 29. August 2011

EAC extraction logfile from 24. January 2014, 16:55

Of Mice & Men / Restoring Force

Used drive  : ATAPI   iHAS124   D   Adapter: 0  ID: 0

Read mode               : Secure
Utilize accurate stream : Yes
Defeat audio cache      : Yes
Make use of C2 pointers : No

Read offset correction                      : 6
Overread into Lead-In and Lead-Out          : No
Fill up missing offset samples with silence : Yes
Delete leading and trailing silent blocks   : No
Null samples used in CRC calculations       : Yes
Used interface                              : Native Win32 interface for Win NT & 2000
Gap handling                                : Appended to previous track

Used output format              : User Defined Encoder
Selected bitrate                : 1024 kBit/s
Quality                         : High
Add ID3 tag                     : No
Command line compressor         : C:\Program Files (x86)\Exact Audio Copy\Flac\flac.exe
Additional command line options : -8 -V -T "artist=%artist%" -T "title=%title%" -T "album=%albumtitle%" -T "date=%year%" -T "tracknumber=%tracknr%" -T "genre=%genre%" %source%

TOC of the extracted CD

     Track |   Start  |  Length  | Start sector | End sector
    ---------------------------------------------------------
        1  |  0:00.00 |  3:32.01 |         0    |    15900
        2  |  3:32.01 |  3:13.37 |     15901    |    30412
        3  |  6:45.38 |  4:15.52 |     30413    |    49589
        4  | 11:01.15 |  3:12.38 |     49590    |    64027
        5  | 14:13.53 |  3:14.73 |     64028    |    78650
        6  | 17:28.51 |  3:45.73 |     78651    |    95598
        7  | 21:14.49 |  3:29.34 |     95599    |   111307
        8  | 24:44.08 |  3:21.44 |    111308    |   126426
        9  | 28:05.52 |  3:37.45 |    126427    |   142746
       10  | 31:43.22 |  3:21.02 |    142747    |   157823
       11  | 35:04.24 |  3:38.01 |    157824    |   174174

Track  1

     Filename D:\Torrents\Restoring Force\01 - Public Service Announcement.wav

     Pre-gap length  0:00:02.00

     Peak level 97.7 %
     Extraction speed 5.3 X
     Track quality 100.0 %
     Test CRC A3BB29DD
     Copy CRC A3BB29DD
     Copy OK

Track  2

     Filename D:\Torrents\Restoring Force\02 - Feels Like Forever.wav

     Peak level 97.7 %
     Extraction speed 5.7 X
     Track quality 100.0 %
     Test CRC 5AEB1D29
     Copy CRC 5AEB1D29
     Copy OK

Track  3

     Filename D:\Torrents\Restoring Force\03 - Bones Exposed.wav

     Peak level 97.7 %
     Extraction speed 6.4 X
     Track quality 100.0 %
     Test CRC 7B9FF7B6
     Copy CRC 7B9FF7B6
     Copy OK

Track  4

     Filename D:\Torrents\Restoring Force\04 - Would You Still Be There.wav

     Peak level 97.7 %
     Extraction speed 6.7 X
     Track quality 100.0 %
     Test CRC CA1CB40A
     Copy CRC CA1CB40A
     Copy OK

Track  5

     Filename D:\Torrents\Restoring Force\05 - Glass Hearts.wav

     Peak level 97.7 %
     Extraction speed 7.0 X
     Track quality 100.0 %
     Test CRC 7B639F93
     Copy CRC 7B639F93
     Copy OK

Track  6

     Filename D:\Torrents\Restoring Force\06 - Another You.wav

     Peak level 97.7 %
     Extraction speed 7.5 X
     Track quality 100.0 %
     Test CRC E173C7F1
     Copy CRC E173C7F1
     Copy OK

Track  7

     Filename D:\Torrents\Restoring Force\07 - Break Free.wav

     Peak level 97.7 %
     Extraction speed 6.4 X
     Track quality 99.9 %
     Test CRC 720C1458
     Copy CRC 720C1458
     Copy OK

Track  8

     Filename D:\Torrents\Restoring Force\08 - You Make Me Sick.wav

     Peak level 97.7 %
     Extraction speed 8.0 X
     Track quality 100.0 %
     Test CRC 7DD47764
     Copy CRC 7DD47764
     Copy OK

Track  9

     Filename D:\Torrents\Restoring Force\09 - Identity Disorder.wav

     Peak level 97.7 %
     Extraction speed 8.4 X
     Track quality 100.0 %
     Test CRC 19947080
     Copy CRC 19947080
     Copy OK

Track 10

     Filename D:\Torrents\Restoring Force\10 - You're Not Alone.wav

     Peak level 97.7 %
     Extraction speed 8.6 X
     Track quality 100.0 %
     Test CRC 8F2A66A5
     Copy CRC 8F2A66A5
     Copy OK

Track 11

     Filename D:\Torrents\Restoring Force\11 - Space Enough to Grow.wav

     Peak level 97.7 %
     Extraction speed 9.0 X
     Track quality 100.0 %
     Test CRC 8B369C67
     Copy CRC 8B369C67
     Copy OK

No errors occurred

End of status report

---- CUETools DB Plugin V2.1.3

[CTDB TOCID: PSBadkkshunXO5ivsSyfkWXfFFQ-] disk not present in database, Submit result: PSBadkkshunXO5ivsSyfkWXfFFQ- has been uploaded

==== Log checksum CC09A34435ACD454B3B0AEFDE7DD7FB2B0210A02404DA0F713155BF368E74B2E ====

Код:
Код:
-----------------------

DON'T MODIFY THIS FILE

-----------------------

PERFORMER: auCDtect Task Manager, ver. 1.6.0 RC1 build 1.6.0.1
Copyright (c) 2008-2010 y-soft. All rights reserved
http:/y-soft.org

ANALYZER: auCDtect: CD records authenticity detector, version 0.8.2
Copyright (c) 2004 Oleg Berngardt. All rights reserved.
Copyright (c) 2004 Alexander Djourik. All rights reserved.

FILE: 11. Of Mice & Men - Space Enough to Grow.flac
  Size: 20420554 Hash: 653BDBC46D1ACCB05FFE290D32F7A3A4 Accuracy: -m0
  Conclusion: CDDA 100%
  Signature: 8480606128F128147339AA11240F117D24A4048D
FILE: 10. Of Mice & Men - You're Not Alone.flac
  Size: 26106850 Hash: 04D599971B8EF05F55E0DF571291804B Accuracy: -m0
  Conclusion: CDDA 100%
  Signature: 980DFB45E1765CE2DC6DE5E0C161568F5667BC7A
FILE: 09. Of Mice & Men - Identity Disorder.flac
  Size: 28496731 Hash: 9EED2AB2F00CC1F23BA3B2D0B1858402 Accuracy: -m0
  Conclusion: CDDA 100%
  Signature: 8C3A290D7ED11C08C8402E153AA3E8C2722E0272
FILE: 08. Of Mice & Men - You Make Me Sick.flac
  Size: 25947364 Hash: 34819B65A47D737964DDB212A187C995 Accuracy: -m0
  Conclusion: CDDA 100%
  Signature: 53885A8A4D66F7F866DCB64CDB09D54CAA608AD6
FILE: 07. Of Mice & Men - Break Free.flac
  Size: 26976365 Hash: 6284355306861D9152B805936CA1006A Accuracy: -m0
  Conclusion: CDDA 100%
  Signature: 616AD171D6648F02DFA35D5E9CD4223243A2B9CD
FILE: 06. Of Mice & Men - Another You.flac
  Size: 26841122 Hash: 982DE1FE3361757186D4AF68321ADD2E Accuracy: -m0
  Conclusion: CDDA 100%
  Signature: 60CF9712C416072BD211ADDB43D20792FAFCC056
FILE: 05. Of Mice & Men - Glass Hearts.flac
  Size: 25384005 Hash: 5F4628CF919DBF2EE9A56E21188CBD02 Accuracy: -m0
  Conclusion: CDDA 100%
  Signature: 9D29B1248F514BF204C085B3D840909B673C6CD4
FILE: 04. Of Mice & Men - Would You Still Be There.flac
  Size: 26734210 Hash: 7BACBE6E01713DE614D672179529FEC5 Accuracy: -m0
  Conclusion: CDDA 100%
  Signature: C5D76CCFCA7711A3BCBB42794949B83340D13F7E
FILE: 03. Of Mice & Men - Bones Exposed.flac
  Size: 35132047 Hash: 1D9F08A388D4A92DE183206BABF96BF7 Accuracy: -m0
  Conclusion: CDDA 100%
  Signature: 99DABE48C2440AF2D895B5473499EC2FD51E72A5
FILE: 02. Of Mice & Men - Feels Like Forever.flac
  Size: 25788368 Hash: 65DF8B64302A20605909183F9D9DEEEF Accuracy: -m0
  Conclusion: CDDA 100%
  Signature: 393AAE18A7CDAEECB54A2E8735DB69F21E5D3142
FILE: 01. Of Mice & Men - Public Service Announcement.flac
  Size: 27480036 Hash: 0DE6EA38D4CCC9FF99457A62B872326B Accuracy: -m0
  Conclusion: CDDA 100%
  Signature: 1D40CD2ECBD675FDB44346941227698FAB2CBB56

Тип рипа: Tracks+.cue
Аудиокодек: FLAC
Битрейт аудио: lossless
Правила, инструкции, FAQ!!!
Торрент  Добавлен [16 мар 2014, 00:37] Скачать торрент Магнет ссылка
Скачать торрент
[ Размер 12.71 КБ / Просмотров 131 ]

Статус  
 
Размер  281.71 МБ
Приватный: Нет (DHT включён)
.torrent скачан  15
 


     Отправить личное сообщение
   
Страница 1 из 1
Показать сообщения за:  Поле сортировки  
Начать новую тему Ответить на тему


Сейчас этот форум просматривают: нет зарегистрированных пользователей и гости: 0


Вы не можете начинать темы
Вы не можете отвечать на сообщения
Вы не можете редактировать свои сообщения
Вы не можете удалять свои сообщения
Вы не можете добавлять вложения

Перейти:  
cron