Начать новую тему Ответить на тему
Статистика раздачи
Размер: 399.86 МБ | Добавлен: 16 мар 2014, 00:49 | Скачали: 1
Сидеров: 3  [0 байт/сек]    Личеров: 1  [0 байт/сек]
Пред. тема | След. тема 

Автор
Сообщение

СообщениеДобавлено: 16 мар 2014, 00:49 

Ответить с цитатой 

Of Mice & Men (Of Mice And Men) - The Flood (Deluxe Reissue) (2012)

Год: 2012
Страна: США
Жанр: Post-Hardcore
Продолжительность: 00:52:21
Кодек: FLAC (tracks+.cue)
Битрейт: Lossless
Источник: Собственный CD + релиз alex.soldout
Издатель: Rise Records
№ по каталогу: B00864607E
Наличие сканов: Да
Треклист:
CD 1:
01 - The Calm (1:50)
02 - The Storm (4:04)
03 - The Flood (3:10)
04 - The Depths (3:46)
CD 2:
01 - O.G. Loko (3:18)
02 - Ben Threw (3:11)
03 - Let Live (4:16)
04 - Still YDG'n (3:11)
05 - My Understandings (2:33)
06 - Ohioisonfire (3:08)
07 - Purified (3:35)
08 - Product of a Murderer (3:52)
09 - Repeating Apologies (3:43)
10 - The Great Hendowski (3:06)
11 - I'm a Monster (1:59)
12 - When You Can't Sleep at Night (3:32)
Код:
Код:
Exact Audio Copy V1.0 beta 3 from 29. August 2011

EAC extraction logfile from 29. July 2012, 15:31

Of Mice & Men / The Flood

Used drive  : TSSTcorpCDDVDW TS-L633C   Adapter: 1  ID: 0

Read mode               : Secure
Utilize accurate stream : Yes
Defeat audio cache      : Yes
Make use of C2 pointers : No

Read offset correction                      : 6
Overread into Lead-In and Lead-Out          : No
Fill up missing offset samples with silence : Yes
Delete leading and trailing silent blocks   : No
Null samples used in CRC calculations       : Yes
Used interface                              : Native Win32 interface for Win NT & 2000
Gap handling                                : Appended to previous track

Used output format              : User Defined Encoder
Selected bitrate                : 1024 kBit/s
Quality                         : High
Add ID3 tag                     : No
Command line compressor         : C:\Program Files (x86)\Exact Audio Copy\Flac\flac.exe
Additional command line options : -8 -V -T "ARTIST=%artist%" -T "TITLE=%title%" -T "ALBUM=%albumtitle%" -T "DATE=%year%" -T "TRACKNUMBER=%tracknr%" -T "GENRE=%genre%" -T "PERFORMER=%albuminterpret%" -T "COMPOSER=%composer%" %haslyrics%--tag-from-file=LYRICS="%lyricsfile%"%haslyrics% -T "ALBUMARTIST=%albumartist%" -T "DISCNUMBER=%cdnumber%" -T "TOTALDISCS=%totalcds%" -T "TOTALTRACKS=%numtracks%" -T "COMMENT=%comment%" %source% -o %dest%

TOC of the extracted CD

     Track |   Start  |  Length  | Start sector | End sector
    ---------------------------------------------------------
        1  |  0:00.00 |  1:50.36 |         0    |     8285
        2  |  1:50.36 |  4:04.31 |      8286    |    26616
        3  |  5:54.67 |  3:10.38 |     26617    |    40904
        4  |  9:05.30 |  3:46.38 |     40905    |    57892

Track  1

     Filename E:\Of Mice & Men - The Flood (Deluxe Reissue) (2012)\CD 1\01 - The Calm.wav

     Pre-gap length  0:00:02.00

     Peak level 88.9 %
     Extraction speed 2.3 X
     Track quality 100.0 %
     Test CRC 20FCE93A
     Copy CRC 20FCE93A
     Track not present in AccurateRip database
     Copy OK

Track  2

     Filename E:\Of Mice & Men - The Flood (Deluxe Reissue) (2012)\CD 1\02 - The Storm.wav

     Peak level 96.6 %
     Extraction speed 2.9 X
     Track quality 100.0 %
     Test CRC A8CA3D27
     Copy CRC A8CA3D27
     Track not present in AccurateRip database
     Copy OK

Track  3

     Filename E:\Of Mice & Men - The Flood (Deluxe Reissue) (2012)\CD 1\03 - The Flood.wav

     Peak level 96.6 %
     Extraction speed 3.0 X
     Track quality 100.0 %
     Test CRC FE3CC6C1
     Copy CRC FE3CC6C1
     Track not present in AccurateRip database
     Copy OK

Track  4

     Filename E:\Of Mice & Men - The Flood (Deluxe Reissue) (2012)\CD 1\04 - The Depths.wav

     Peak level 96.6 %
     Extraction speed 3.3 X
     Track quality 100.0 %
     Test CRC 7896AD3E
     Copy CRC 7896AD3E
     Track not present in AccurateRip database
     Copy OK

None of the tracks are present in the AccurateRip database

No errors occurred

End of status report

==== Log checksum 66FF9050D7743F864CDFC98334AF197C136D9FC45A12614A1013A5C5C74780A8 ====
Код:
Код:
-----------------------

DON'T MODIFY THIS FILE

-----------------------

PERFORMER: auCDtect Task Manager, ver. 1.6.0 RC1 build 1.6.0.1
Copyright (c) 2008-2010 y-soft. All rights reserved
http:/y-soft.org

ANALYZER: auCDtect: CD records authenticity detector, version 0.8.2
Copyright (c) 2004 Oleg Berngardt. All rights reserved.
Copyright (c) 2004 Alexander Djourik. All rights reserved.

FILE: 02 - The Storm.flac
  Size: 33644931 Hash: D8C1F5848622B27D7069684AAF1D888F Accuracy: -m0
  Conclusion: CDDA 99%
  Signature: 5E7A15DE13E2062F891E31AC15A39D8B280B0AD4
FILE: 01 - The Calm.flac
  Size: 6968650 Hash: 5F6419054F907BA8C91882E832EE1E2F Accuracy: -m0
  Conclusion: CDDA 100%
  Signature: 165801AE485E621F88A010460DABDEF76479DE22
FILE: 04 - The Depths.flac
  Size: 31584047 Hash: F2E63E994C030D4D956D91CBF8A7B387 Accuracy: -m0
  Conclusion: CDDA 100%
  Signature: 12F8C5C0F87BC3285CE7F654CA0C4EA64F7AE0A2
FILE: 03 - The Flood.flac
  Size: 25972569 Hash: 39C732928E2E6894F3C3A8DC6387A8E3 Accuracy: -m0
  Conclusion: CDDA 99%
  Signature: E4036D62D1ACA9C7C526A1698D4DA5248C871F1D
Код:
Код:
REM GENRE Hardcore
REM DATE 2012
REM DISCID 24030304
REM COMMENT "ExactAudioCopy v1.0b3"
PERFORMER "Of Mice & Men"
TITLE "The Flood"
FILE "01 - The Calm.wav" WAVE
  TRACK 01 AUDIO
    TITLE "The Calm"
    PERFORMER "Of Mice & Men"
    ISRC USEK71216001
    INDEX 01 00:00:00
FILE "02 - The Storm.wav" WAVE
  TRACK 02 AUDIO
    TITLE "The Storm"
    PERFORMER "Of Mice & Men"
    ISRC USEK71216002
    INDEX 01 00:00:00
FILE "03 - The Flood.wav" WAVE
  TRACK 03 AUDIO
    TITLE "The Flood"
    PERFORMER "Of Mice & Men"
    ISRC USEK71216003
    INDEX 01 00:00:00
FILE "04 - The Depths.wav" WAVE
  TRACK 04 AUDIO
    TITLE "The Depths"
    PERFORMER "Of Mice & Men"
    ISRC USEK71216004
    INDEX 01 00:00:00
Код:
Код:
Exact Audio Copy V1.0 beta 3 from 29. August 2011

EAC extraction logfile from 29. July 2012, 16:43

Of Mice & Men / The Flood

Used drive  : TSSTcorpCDDVDW TS-L633C   Adapter: 1  ID: 0

Read mode               : Secure
Utilize accurate stream : Yes
Defeat audio cache      : Yes
Make use of C2 pointers : No

Read offset correction                      : 6
Overread into Lead-In and Lead-Out          : No
Fill up missing offset samples with silence : Yes
Delete leading and trailing silent blocks   : No
Null samples used in CRC calculations       : Yes
Used interface                              : Native Win32 interface for Win NT & 2000
Gap handling                                : Appended to previous track

Used output format              : User Defined Encoder
Selected bitrate                : 1024 kBit/s
Quality                         : High
Add ID3 tag                     : No
Command line compressor         : C:\Program Files (x86)\Exact Audio Copy\Flac\flac.exe
Additional command line options : -8 -V -T "ARTIST=%artist%" -T "TITLE=%title%" -T "ALBUM=%albumtitle%" -T "DATE=%year%" -T "TRACKNUMBER=%tracknr%" -T "GENRE=%genre%" -T "PERFORMER=%albuminterpret%" -T "COMPOSER=%composer%" %haslyrics%--tag-from-file=LYRICS="%lyricsfile%"%haslyrics% -T "ALBUMARTIST=%albumartist%" -T "DISCNUMBER=%cdnumber%" -T "TOTALDISCS=%totalcds%" -T "TOTALTRACKS=%numtracks%" -T "COMMENT=%comment%" %source% -o %dest%

TOC of the extracted CD

     Track |   Start  |  Length  | Start sector | End sector
    ---------------------------------------------------------
        1  |  0:00.00 |  3:18.60 |         0    |    14909
        2  |  3:18.60 |  3:11.44 |     14910    |    29278
        3  |  6:30.29 |  4:16.45 |     29279    |    48523
        4  | 10:46.74 |  3:11.01 |     48524    |    62849
        5  | 13:58.00 |  2:33.68 |     62850    |    74392
        6  | 16:31.68 |  3:08.02 |     74393    |    88494
        7  | 19:39.70 |  3:35.16 |     88495    |   104635
        8  | 23:15.11 |  3:52.46 |    104636    |   122081
        9  | 27:07.57 |  3:43.67 |    122082    |   138873
       10  | 30:51.49 |  3:06.56 |    138874    |   152879
       11  | 33:58.30 |  1:59.25 |    152880    |   161829
       12  | 35:57.55 |  3:32.02 |    161830    |   177731

Track  1

     Filename E:\Of Mice & Men - The Flood (Deluxe Reissue) (2012)\CD 2\01 - O.G. Loko.wav

     Pre-gap length  0:00:02.00

     Peak level 96.6 %
     Extraction speed 1.1 X
     Track quality 100.0 %
     Test CRC 0E34052C
     Copy CRC 0E34052C
     Cannot be verified as accurate (confidence 1)  [BD6A04B6], AccurateRip returned [0C98BAAB]  (AR v2)
     Copy OK

Track  2

     Filename E:\Of Mice & Men - The Flood (Deluxe Reissue) (2012)\CD 2\02 - Ben Threw.wav

     Peak level 96.6 %
     Extraction speed 1.0 X
     Track quality 99.9 %
     Test CRC DB0456C4
     Copy CRC DB0456C4
     Cannot be verified as accurate (confidence 1)  [14E96865], AccurateRip returned [14C3D5E7]  (AR v2)
     Copy OK

Track  3

     Filename E:\Of Mice & Men - The Flood (Deluxe Reissue) (2012)\CD 2\03 - Let Live.wav

     Peak level 96.6 %
     Extraction speed 1.2 X
     Track quality 99.9 %
     Test CRC DFF8EF5E
     Copy CRC DFF8EF5E
     Cannot be verified as accurate (confidence 1)  [B1EE346A], AccurateRip returned [65FF7747]  (AR v2)
     Copy OK

Track  4

     Filename E:\Of Mice & Men - The Flood (Deluxe Reissue) (2012)\CD 2\04 - Still YDG'n.wav

     Peak level 97.3 %
     Extraction speed 1.4 X
     Track quality 100.0 %
     Test CRC 2466F69C
     Copy CRC 2466F69C
     Cannot be verified as accurate (confidence 1)  [7D34606C], AccurateRip returned [4D111E78]  (AR v2)
     Copy OK

Track  5

     Filename E:\Of Mice & Men - The Flood (Deluxe Reissue) (2012)\CD 2\05 - My Understandings.wav

     Peak level 96.6 %
     Extraction speed 1.4 X
     Track quality 100.0 %
     Test CRC CFCAFB78
     Copy CRC CFCAFB78
     Cannot be verified as accurate (confidence 1)  [26E5B1B6], AccurateRip returned [971542B4]  (AR v2)
     Copy OK

Track  6

     Filename E:\Of Mice & Men - The Flood (Deluxe Reissue) (2012)\CD 2\06 - Ohioisonfire.wav

     Peak level 96.8 %
     Extraction speed 1.6 X
     Track quality 100.0 %
     Test CRC EC3FD3D8
     Copy CRC EC3FD3D8
     Cannot be verified as accurate (confidence 1)  [1ECC4F54], AccurateRip returned [0E30C996]  (AR v2)
     Copy OK

Track  7

     Filename E:\Of Mice & Men - The Flood (Deluxe Reissue) (2012)\CD 2\07 - Purified.wav

     Peak level 96.6 %
     Extraction speed 1.7 X
     Track quality 100.0 %
     Test CRC 0C0C0DBB
     Copy CRC 0C0C0DBB
     Cannot be verified as accurate (confidence 1)  [04E005EA], AccurateRip returned [1B8A9D9B]  (AR v2)
     Copy OK

Track  8

     Filename E:\Of Mice & Men - The Flood (Deluxe Reissue) (2012)\CD 2\08 - Product of a Murderer.wav

     Peak level 96.6 %
     Extraction speed 1.8 X
     Track quality 100.0 %
     Test CRC 6039D5DF
     Copy CRC 6039D5DF
     Cannot be verified as accurate (confidence 1)  [F87F2DCC], AccurateRip returned [176EBF10]  (AR v2)
     Copy OK

Track  9

     Filename E:\Of Mice & Men - The Flood (Deluxe Reissue) (2012)\CD 2\09 - Repeating Apologies.wav

     Peak level 96.6 %
     Extraction speed 1.8 X
     Track quality 100.0 %
     Test CRC F2494474
     Copy CRC F2494474
     Cannot be verified as accurate (confidence 1)  [6BD9E5A2], AccurateRip returned [82AD4632]  (AR v2)
     Copy OK

Track 10

     Filename E:\Of Mice & Men - The Flood (Deluxe Reissue) (2012)\CD 2\10 - The Great Hendowski.wav

     Peak level 96.6 %
     Extraction speed 1.8 X
     Track quality 100.0 %
     Test CRC 6C4F3A7B
     Copy CRC 6C4F3A7B
     Cannot be verified as accurate (confidence 1)  [557EC0BD], AccurateRip returned [5177F6F2]  (AR v2)
     Copy OK

Track 11

     Filename E:\Of Mice & Men - The Flood (Deluxe Reissue) (2012)\CD 2\11 - I'm a Monster.wav

     Peak level 96.7 %
     Extraction speed 1.7 X
     Track quality 100.0 %
     Test CRC 6B83CAFC
     Copy CRC 6B83CAFC
     Cannot be verified as accurate (confidence 1)  [FE4D2E52], AccurateRip returned [E1DA31BF]  (AR v2)
     Copy OK

Track 12

     Filename E:\Of Mice & Men - The Flood (Deluxe Reissue) (2012)\CD 2\12 - When You Can't Sleep at Night.wav

     Peak level 96.6 %
     Extraction speed 2.0 X
     Track quality 100.0 %
     Test CRC 9F0143FC
     Copy CRC 9F0143FC
     Cannot be verified as accurate (confidence 1)  [9C0469F9], AccurateRip returned [9E7C433E]  (AR v2)
     Copy OK

No tracks could be verified as accurate
You may have a different pressing from the one(s) in the database

No errors occurred

End of status report

==== Log checksum AFBA77F5331303FF58E1172144A409D26544B0DD36C0B00FCC892893B4DFE934 ====
Код:
Код:
-----------------------

DON'T MODIFY THIS FILE

-----------------------

PERFORMER: auCDtect Task Manager, ver. 1.6.0 RC1 build 1.6.0.1
Copyright (c) 2008-2010 y-soft. All rights reserved
http:/y-soft.org

ANALYZER: auCDtect: CD records authenticity detector, version 0.8.2
Copyright (c) 2004 Oleg Berngardt. All rights reserved.
Copyright (c) 2004 Alexander Djourik. All rights reserved.

FILE: 06 - Ohioisonfire.flac
  Size: 26771190 Hash: 1C35F8E57A5A817AA4A538177ACB5837 Accuracy: -m0
  Conclusion: CDDA 100%
  Signature: 1066B034884E81EDFE8E0532984D1FE1569F9B36
FILE: 05 - My Understandings.flac
  Size: 17450010 Hash: E05CFBD15DE6968FE5E16F136FD8F41C Accuracy: -m0
  Conclusion: CDDA 100%
  Signature: 3CE26D9C903C2DD31126B31ECFA35863D9784B31
FILE: 04 - Still YDG'n.flac
  Size: 26711668 Hash: D71292B4F1E893155243D443F80B84E4 Accuracy: -m0
  Conclusion: CDDA 99%
  Signature: 81B1AFF59F6E46E914EC464C0DF062853786029A
FILE: 03 - Let Live.flac
  Size: 35565350 Hash: 9F0864AAAC9A339A4F4F4A7059B7F5D6 Accuracy: -m0
  Conclusion: CDDA 100%
  Signature: 1AD3E50C6D704C3FD61537278C2459345DF4C27B
FILE: 02 - Ben Threw.flac
  Size: 26652543 Hash: FE100C4E05D9099B0FF8C97F628780B2 Accuracy: -m0
  Conclusion: CDDA 100%
  Signature: 42B7C2925BD3400B8F9B93339B1EAF5591BDFD5D
FILE: 01 - O.G. Loko.flac
  Size: 27510751 Hash: 548A2945DF38B85264CF1E30029BB12B Accuracy: -m0
  Conclusion: CDDA 100%
  Signature: 381835EDC888A12FDA141A5582F3771804771C75
FILE: 12 - When You Can't Sleep at Night.flac
  Size: 23741125 Hash: 6EEC253CD7AF77EA3259496E1B0E8291 Accuracy: -m0
  Conclusion: CDDA 100%
  Signature: D6C6BC4208DA5A0AF1B6EDE32C06B11EE8D24A6C
FILE: 11 - I'm a Monster.flac
  Size: 16329005 Hash: 912BE96102D0B3530CBF62F14A36E617 Accuracy: -m0
  Conclusion: CDDA 100%
  Signature: EDEE1B883552666197574FE4FC659C99045DB9C1
FILE: 10 - The Great Hendowski.flac
  Size: 26372981 Hash: 71E560C664AE33FB3EEEB94FB1A2E12D Accuracy: -m0
  Conclusion: CDDA 100%
  Signature: F46E707165FDE9505EE7DB6BCF47C3498A6DDDD0
FILE: 09 - Repeating Apologies.flac
  Size: 30759889 Hash: 46D694A2816C8F0F73C3219A6F1E50AC Accuracy: -m0
  Conclusion: CDDA 100%
  Signature: CE77EAC7429A32C8A93B6D54068E19CE28FBD73E
FILE: 08 - Product of a Murderer.flac
  Size: 31193245 Hash: A4BA285E97092DE8C18561C8C64D53C0 Accuracy: -m0
  Conclusion: CDDA 100%
  Signature: 53B2C136E06D26F38C10261025FF2FA9401111D5
FILE: 07 - Purified.flac
  Size: 30365482 Hash: 9018677E5B3426AD8DF3EB58EC3E7D9D Accuracy: -m0
  Conclusion: CDDA 100%
  Signature: 6AE9023705CA905F65028A753518F3D84EB82549
Код:
Код:
REM GENRE Hardcore
REM DATE 2011
REM DISCID 9E09410C
REM COMMENT "ExactAudioCopy v1.0b3"
PERFORMER "Of Mice & Men"
TITLE "The Flood"
FILE "01 - O.G. Loko.wav" WAVE
  TRACK 01 AUDIO
    TITLE "O.G. Loko"
    PERFORMER "Of Mice & Men"
    ISRC USEK71216005
    INDEX 01 00:00:00
FILE "02 - Ben Threw.wav" WAVE
  TRACK 02 AUDIO
    TITLE "Ben Threw"
    PERFORMER "Of Mice & Men"
    ISRC USEK71216006
    INDEX 01 00:00:00
FILE "03 - Let Live.wav" WAVE
  TRACK 03 AUDIO
    TITLE "Let Live"
    PERFORMER "Of Mice & Men"
    ISRC USEK71216007
    INDEX 01 00:00:00
FILE "04 - Still YDG'n.wav" WAVE
  TRACK 04 AUDIO
    TITLE "Still YDG'n"
    PERFORMER "Of Mice & Men"
    ISRC USEK71216008
    INDEX 01 00:00:00
FILE "05 - My Understandings.wav" WAVE
  TRACK 05 AUDIO
    TITLE "My Understandings"
    PERFORMER "Of Mice & Men"
    ISRC USEK71216009
    INDEX 01 00:00:00
FILE "06 - Ohioisonfire.wav" WAVE
  TRACK 06 AUDIO
    TITLE "Ohioisonfire"
    PERFORMER "Of Mice & Men"
    ISRC USEK71216010
    INDEX 01 00:00:00
FILE "07 - Purified.wav" WAVE
  TRACK 07 AUDIO
    TITLE "Purified"
    PERFORMER "Of Mice & Men"
    ISRC USEK71216011
    INDEX 01 00:00:00
FILE "08 - Product of a Murderer.wav" WAVE
  TRACK 08 AUDIO
    TITLE "Product of a Murderer"
    PERFORMER "Of Mice & Men"
    ISRC USEK71216011
    INDEX 01 00:00:00
FILE "09 - Repeating Apologies.wav" WAVE
  TRACK 09 AUDIO
    TITLE "Repeating Apologies"
    PERFORMER "Of Mice & Men"
    ISRC USEK71216013
    INDEX 01 00:00:00
FILE "10 - The Great Hendowski.wav" WAVE
  TRACK 10 AUDIO
    TITLE "The Great Hendowski"
    PERFORMER "Of Mice & Men"
    ISRC USEK71216014
    INDEX 01 00:00:00
FILE "11 - I'm a Monster.wav" WAVE
  TRACK 11 AUDIO
    TITLE "I'm a Monster"
    PERFORMER "Of Mice & Men"
    ISRC USEK71216014
    INDEX 01 00:00:00
FILE "12 - When You Can't Sleep at Night.wav" WAVE
  TRACK 12 AUDIO
    TITLE "When You Can't Sleep at Night"
    PERFORMER "Of Mice & Men"
    ISRC USEK71216016
    INDEX 01 00:00:00
Если вам понравился альбом, пожалуйста, купите CD, поддержите исполнителя!
Правила, инструкции, FAQ!!!
Торрент  Добавлен [16 мар 2014, 00:49] Скачать торрент Магнет ссылка
Скачать торрент
[ Размер 17.98 КБ / Просмотров 56 ]

Статус  
 
Размер  399.86 МБ
Приватный: Нет (DHT включён)
.torrent скачан  1
 


     Отправить личное сообщение
   
Страница 1 из 1
Показать сообщения за:  Поле сортировки  
Начать новую тему Ответить на тему


Сейчас этот форум просматривают: нет зарегистрированных пользователей и гости: 0


Вы не можете начинать темы
Вы не можете отвечать на сообщения
Вы не можете редактировать свои сообщения
Вы не можете удалять свои сообщения
Вы не можете добавлять вложения

Перейти:  
cron