Начать новую тему Ответить на тему
Статистика раздачи
Размер: 275.26 МБ | Добавлен: 24 авг 2016, 11:52 | Скачали: 0
Сидеров: 0  [0 байт/сек]    Личеров: 0  [0 байт/сек]
Пред. тема | След. тема 

Автор
Сообщение

СообщениеДобавлено: 24 авг 2016, 11:52 

Ответить с цитатой 

Metz — Live at Bowery Ballroom, New York, NY, US, Apr 17, 2013
Жанр/Genre/Style: noise rock, punk rock, grunge
Источник/Original host: nyctaper.com
Автор/Taper: acidjack
Запись/Master/Source: soundboard+audience
Продолжительность/Duration: 44:51.200 (118 681 935 samples)

Формат раздачи/Upload specs:
Sample rate : 44100 Hz
Channels : 2
Bits per sample : 16
Codec : FLAC
Encoding : lossless

Треклист/Track listing:
01. [new song1] (2:49)
02. Knife In the Water (2:43)
03. Negative Space (3:06)
04. [banter - head injury] (3:09)
05. Get Off (2:36)
06. Wasted (4:01)
07. [banter2] (1:19)
08. Sad Pricks (2:43)
09. [banter3] (1:06)
10. Can't Understand (3:05)
11. Headache (3:03)
12. Rats (4:03)
13. The Mule (2:45)
14. [banter4] (1:03)
15. Wet Blanket (7:21)
Код:
-----------------------

DON'T MODIFY THIS FILE

-----------------------

PERFORMER: auCDtect Task Manager, ver. 1.6.0 RC1 build 1.6.0.1
Copyright (c) 2008-2010 y-soft. All rights reserved
[url=http://y-soft.org]http://y-soft.org[/url]

ANALYZER: auCDtect: CD records authenticity detector, version 0.8.2
Copyright (c) 2004 Oleg Berngardt. All rights reserved.
Copyright (c) 2004 Alexander Djourik. All rights reserved.

FILE: 15. Wet Blanket.flac
  Size: 50266542 Hash: A3F371FFF208DAA3EB090018965B8532 Accuracy: -m0
  Conclusion: CDDA 100%
  Signature: E4FD417ABB064602EABB07E0830C0A027D7D8605
FILE: 14. [banter4].flac
  Size: 5562093 Hash: DA9B0101320DC5A3CC11E1503FBFE438 Accuracy: -m0
  Conclusion: CDDA 99%
  Signature: 64309B7ECAADF1D2436341094AEDB9EE96517361
FILE: 13. The Mule.flac
  Size: 18256702 Hash: 32539CBCE6976975627314C135297D48 Accuracy: -m0
  Conclusion: CDDA 100%
  Signature: 3BACEC1C3569310DC9E665A40898DB776B27374B
FILE: 12. Rats.flac
  Size: 25627701 Hash: 0A684BA99B92376649A062C8B61A1DC8 Accuracy: -m0
  Conclusion: CDDA 100%
  Signature: 5A288A530885B06204F82AAE619A4C4C7615216A
FILE: 11. Headache.flac
  Size: 19567987 Hash: C5B29A15E411775B40EE3BBC2CA3D051 Accuracy: -m0
  Conclusion: CDDA 100%
  Signature: CE603C10F62C09F3A1793417C786BE27F5F6F1A3
FILE: 10. Can't Understand.flac
  Size: 20649491 Hash: 619D64C14B76DCE4638A54C05A02BC0E Accuracy: -m0
  Conclusion: CDDA 99%
  Signature: 6306015A69DCA1C0EC537F2586009882C53166D6
FILE: 09. [banter3].flac
  Size: 4966386 Hash: 4349ED673AE24ED030737F578248C683 Accuracy: -m0
  Conclusion: CDDA 100%
  Signature: 4ACA2BD7ED9CF2510E508B0107EB711CCC5C80AD
FILE: 08. Sad Pricks.flac
  Size: 18863452 Hash: 6A398BD42503E1DB6AB7BD858BAC1D4B Accuracy: -m0
  Conclusion: CDDA 100%
  Signature: 4C8038F4CD6E18A38B1925D7382F0527762094C1
FILE: 07. [banter2].flac
  Size: 6575416 Hash: 139AD186202A9AA7B24F1CEBDF1EB8CD Accuracy: -m0
  Conclusion: CDDA 100%
  Signature: F5DDA7552A6C2A0E2C6A007017ED2FCEE928EF4F
FILE: 06. Wasted.flac
  Size: 27614923 Hash: 2A70A1163B69490C7514F06B26D20133 Accuracy: -m0
  Conclusion: CDDA 100%
  Signature: 4A92328330BE32EB5DA5E73E273282B61D053CCD
FILE: 05. Get Off.flac
  Size: 16730483 Hash: 46D685F51EEE4A13F85764BC63B20D7B Accuracy: -m0
  Conclusion: CDDA 100%
  Signature: 87B39BD52288D411D51088F5CDE3FB5D8C5EE80D
FILE: 04. [banter - head injury].flac
  Size: 14106532 Hash: 159F55B4015D007F577249DBC5E51B56 Accuracy: -m0
  Conclusion: CDDA 99%
  Signature: 46980786A073B25AEC57269DD8979A5907BA2A12
FILE: 03. Negative Space.flac
  Size: 21667488 Hash: E39944D8146358EE69FA7D76DFD46B45 Accuracy: -m0
  Conclusion: CDDA 100%
  Signature: ABED6E1A7E08D204666D486D562E6EF30C3687CB
FILE: 02. Knife In the Water.flac
  Size: 18013739 Hash: 8D37F9890F6822262A9731F6284ABFE9 Accuracy: -m0
  Conclusion: CDDA 99%
  Signature: 46494FB3849885CB0CBEF81F64F660668898F34B
FILE: 01. [new song1].flac
  Size: 18487319 Hash: 9CE2C696BE39DAFE0472913C07E7BD3D Accuracy: -m0
  Conclusion: CDDA 100%
  Signature: 45158BE91C5406B6765DAE84B0D2F51BDFF90E71
Код:
foobar2000 1.3.8 / Dynamic Range Meter 1.1.1
log date: 2015-05-06 23:32:46

--------------------------------------------------------------------------------
Analyzed: Metz / Live at Bowery Ballroom, New York, NY, US, Apr 17, 2013 [SBD+AUD]
--------------------------------------------------------------------------------

DR         Peak         RMS     Duration Track
--------------------------------------------------------------------------------
DR10      -0.63 dB   -13.30 dB      2:49 01-[new song1]
DR11      -0.95 dB   -13.72 dB      2:43 02-Knife In the Water
DR10      -0.39 dB   -12.57 dB      3:06 03-Negative Space
DR14      -3.58 dB   -22.98 dB      3:09 04-[banter - head injury]
DR10      -0.52 dB   -13.39 dB      2:36 05-Get Off
DR10      -0.07 dB   -12.38 dB      4:01 06-Wasted
DR10      -4.34 dB   -19.90 dB      1:19 07-[banter2]
DR11      -0.48 dB   -13.21 dB      2:43 08-Sad Pricks
DR12      -5.30 dB   -23.77 dB      1:06 09-[banter3]
DR10      -0.07 dB   -12.25 dB      3:05 10-Can't Understand
DR11      -0.06 dB   -14.20 dB      3:03 11-Headache
DR11      -0.08 dB   -13.58 dB      4:03 12-Rats
DR10      -0.08 dB   -12.55 dB      2:45 13-The Mule
DR12      -3.08 dB   -20.16 dB      1:03 14-[banter4]
DR11      -0.04 dB   -12.96 dB      7:21 15-Wet Blanket
--------------------------------------------------------------------------------

Number of tracks:  15
Official DR value: DR11

Samplerate:        44100 Hz
Channels:          2
Bits per sample:   16
Bitrate:           908 kbps
Codec:             FLAC
================================================================================
Schoeps MK5 (cardiod, DIN, slightly LOC)>KCY>Z-PFA>Sound Devices USBPre2 + Soundboard (engineer: Kenny)>>Edirol R-44 [OCM]>Adobe Audition CS 5.5 (adjust levels, mix down)>Izotope Ozone 5 (effects, EQ)>Audacity 3.0 (tracking, fades, amplify, balance, downsample)>FLAC ( level 8 )
Код:
General
Complete name                            : C:\...\Metz - Live at Bowery Ballroom, New York, NY, US, Apr 17, 2013 [SBD+AUD]\12. Rats.flac
Format                                   : FLAC
Format/Info                              : Free Lossless Audio Codec
File size                                : 24.4 MiB
Duration                                 : 4mn 2s
Overall bit rate mode                    : Variable
Overall bit rate                         : 845 Kbps
Album                                    : Live at Bowery Ballroom, New York, NY, US, Apr 17, 2013 [SBD+AUD]
Track name                               : Rats
Track name/Position                      : 12
Track name/Total                         : 15
Performer                                : Metz
Genre                                    : noise rock, punk rock, grunge
Recorded date                            : 2013
Cover                                    : Yes
Cover type                               : Performer
Cover MIME                               : image/jpeg
Comment                                  : [url=http://www.nyctaper.com/2013/04/metz-april-17-2013-bowery-ballroom-flacmp3streaming/]http://www.nyctaper.com/2013/04/metz-april-17-2013-bowery-ballroom-flacmp3streaming/[/url]

Audio
Format                                   : FLAC
Format/Info                              : Free Lossless Audio Codec
Duration                                 : 4mn 2s
Bit rate mode                            : Variable
Bit rate                                 : 836 Kbps
Channel(s)                               : 2 channels
Sampling rate                            : 44.1 KHz
Bit depth                                : 16 bits
Stream size                              : 24.2 MiB (99%)
Writing library                          : libFLAC 1.2.1 (UTC 2007-09-17)
[center] [/font]
Правила, инструкции, FAQ!!!
Торрент  Добавлен [24 авг 2016, 11:52] Скачать торрент Магнет ссылка
Скачать торрент
[ Размер 12.01 КБ / Просмотров 3 ]

Статус
Проверен 
 
Размер  275.26 МБ
Приватный: Нет (DHT включён)
.torrent скачан  0
 


     Отправить личное сообщение
   
Страница 1 из 1
Показать сообщения за:  Поле сортировки  
Начать новую тему Ответить на тему


Сейчас этот форум просматривают: нет зарегистрированных пользователей и гости: 0


Вы не можете начинать темы
Вы не можете отвечать на сообщения
Вы не можете редактировать свои сообщения
Вы не можете удалять свои сообщения
Вы не можете добавлять вложения

Перейти:  
cron
cron