Начать новую тему Ответить на тему
Статистика раздачи
Размер: 142.04 МБ | Добавлен: 24 авг 2016, 12:25 | Скачали: 1
Сидеров: 1  [0 байт/сек]    Личеров: 0  [0 байт/сек]
Пред. тема | След. тема 

Автор
Сообщение

СообщениеДобавлено: 24 авг 2016, 12:25 

Ответить с цитатой 

Sonic Youth - 4 Tunna Brix [EP]

Жанр: Noise Rock, Experimental
Год выпуска диска: 1990
Производитель диска: USA
Аудио кодек: FLAC
Тип рипа: tracks+.cue
Битрейт аудио: lossless
Продолжительность: 17 min 25 secs
Трэклист:
01 My New House 8:09
02 Rowche Rumble 4:04
03 Psycho Mafia 2:20
04 Victoria 2:52
Доп. информация: Vinyl-Rip: 44.1 kHz 16 bit
4 Tunna Brix is an EP by the alternative rock group Sonic Youth. It was released in 1990. This EP was originally a 1988 Peel Session, Sonic Youth covered three songs by The Fall and "Victoria" by The Kinks, also covered by The Fall.


Many thanks to original uploader exfedex2000!!!
Код:
Sonic Youth self released an EP of covers by The Fall in 1990. It was a vinyl only release. Included are the original versions of these tracks by The Fall also.
Original "Sonic Youth 4-Tunna Brix" vinyl ripped to CD-R then CD-R read by EAC and converted to FLAC.
Note: "Victoria" was originally a Kinks song covered by The Fall then covered by Sonic Youth on the 4 Tunna Brix EP.
Код:
Exact Audio Copy V0.99 prebeta 5 from 4. May 2009

EAC extraction logfile from 6. August 2009, 13:26

Unknown Artist / Unknown Title

Used drive  : HL-DT-STDVD+-RW GSA-H73N   Adapter: 1  ID: 0

Read mode               : Secure
Utilize accurate stream : Yes
Defeat audio cache      : Yes
Make use of C2 pointers : No

Read offset correction                      : 102
Overread into Lead-In and Lead-Out          : No
Fill up missing offset samples with silence : Yes
Delete leading and trailing silent blocks   : No
Null samples used in CRC calculations       : Yes
Used interface                              : Native Win32 interface for Win NT & 2000
Gap handling                                : Not detected, thus appended to previous track

Used output format              : User Defined Encoder
Selected bitrate                : 768 kBit/s
Quality                         : High
Add ID3 tag                     : No
Command line compressor         : D:\Program Files\Exact Audio Copy\FLAC\FLAC.EXE
Additional command line options : -V -8 -T "artist=%a" -T "title=%t" -T "album=%g" -T "date=%y" -T "tracknumber=%n" -T "genre=%m" %s

TOC of the extracted CD

     Track |   Start  |  Length  | Start sector | End sector
    ---------------------------------------------------------
        1  |  0:00.00 |  8:09.02 |         0    |    36676
        2  |  8:09.02 |  4:04.17 |     36677    |    54993
        3  | 12:13.19 |  2:20.12 |     54994    |    65505
        4  | 14:33.31 |  2:52.07 |     65506    |    78412
        5  | 17:25.38 |  4:09.32 |     78413    |    97119

Track  1

     Filename D:\Demonoid\Sonic Youth vs. The Fall - 4 Tunna Brix\01 Track01.wav

     Peak level 100.0 %
     Track quality 99.9 %
     Copy CRC 6C41DAE3
     Track not present in AccurateRip database
     Copy OK

Track  2

     Filename D:\Demonoid\Sonic Youth vs. The Fall - 4 Tunna Brix\02 Track02.wav

     Peak level 100.0 %
     Track quality 100.0 %
     Copy CRC 83D29464
     Track not present in AccurateRip database
     Copy OK

Track  3

     Filename D:\Demonoid\Sonic Youth vs. The Fall - 4 Tunna Brix\03 Track03.wav

     Peak level 100.0 %
     Track quality 100.0 %
     Copy CRC 3C4F3533
     Track not present in AccurateRip database
     Copy OK

Track  4

     Filename D:\Demonoid\Sonic Youth vs. The Fall - 4 Tunna Brix\04 Track04.wav

     Peak level 100.0 %
     Track quality 100.0 %
     Copy CRC E6C2F555
     Track not present in AccurateRip database
     Copy OK

None of the tracks are present in the AccurateRip database

No errors occurred

End of status report
Код:
REM GENRE Noise Rock
REM DATE 1990
PERFORMER "Sonic Youth"
TITLE "4 Tunna Brix"
FILE "01 - My New House.wav" WAVE
  TRACK 01 AUDIO
    TITLE "My New House"
    INDEX 01 00:00:00
FILE "02 - Rowche Rumble.wav" WAVE
  TRACK 02 AUDIO
    TITLE "Rowche Rumble"
    INDEX 01 00:00:00
FILE "03 - Psycho Mafia.wav" WAVE
  TRACK 03 AUDIO
    TITLE "Psycho Mafia"
    INDEX 01 00:00:00
FILE "04 - Victoria.wav" WAVE
  TRACK 04 AUDIO
    TITLE "Victoria"
    INDEX 01 00:00:00
Код:
AUDIOCHECKER v2.0 beta (build 457) - by Dester - opdester@freemail.hu
~~~~~~~~~~~~~~~~~~~~~~~~~~~~~~~~~~

-----------------------------------------------------------

Started at: четверг, 18. 03. 2010. - 9:53.49
4 files found

1 -===- M:\My torrents\Sonic Youth - 1990 - 4 Tunna Brix [EP]\01 - My New House.flac
  Extracted successfully
  Conclusion: this track is CDDA with probability 100%
  Tempfile successfully deleted.

2 -===- M:\My torrents\Sonic Youth - 1990 - 4 Tunna Brix [EP]\02 - Rowche Rumble.flac
  Extracted successfully
  Conclusion: this track is CDDA with probability 99%
  Tempfile successfully deleted.

3 -===- M:\My torrents\Sonic Youth - 1990 - 4 Tunna Brix [EP]\03 - Psycho Mafia.flac
  Extracted successfully
  Conclusion: this track is CDDA with probability 100%
  Tempfile successfully deleted.

4 -===- M:\My torrents\Sonic Youth - 1990 - 4 Tunna Brix [EP]\04 - Victoria.flac
  Extracted successfully
  Conclusion: this track is CDDA with probability 99%
  Tempfile successfully deleted.

Finished at: четверг, 18. 03. 2010. - 9:56.34 (operation time: 0:02.45)
Правила, инструкции, FAQ!!!
Торрент  Добавлен [24 авг 2016, 12:25] Скачать торрент Магнет ссылка
Скачать торрент
[ Размер 12.38 КБ / Просмотров 9 ]

Статус
Проверен 
 
Размер  142.04 МБ
Приватный: Нет (DHT включён)
.torrent скачан  1
 


     Отправить личное сообщение
   
Страница 1 из 1
Показать сообщения за:  Поле сортировки  
Начать новую тему Ответить на тему


Сейчас этот форум просматривают: нет зарегистрированных пользователей и гости: 0


Вы не можете начинать темы
Вы не можете отвечать на сообщения
Вы не можете редактировать свои сообщения
Вы не можете удалять свои сообщения
Вы не можете добавлять вложения

Перейти:  
cron
cron