Начать новую тему Ответить на тему
Статистика раздачи
Размер: 506.03 МБ | Добавлен: 16 мар 2014, 00:38 | Скачали: 5
Сидеров: 8  [0 байт/сек]    Личеров: 1  [0 байт/сек]
Пред. тема | След. тема 

Автор
Сообщение

СообщениеДобавлено: 16 мар 2014, 00:38 

Ответить с цитатой 

Nirvana - The Very Best (1994)

Год: 1994
Жанр: Grunge
Продолжительность: 01:13:51

Кодек: FLAC
Битрейт: Lossless

Треклист:
01. Smells Like Teen Spirit (5:02)
02. Come As You Are (3:40)
03. Oh, The Guilt (3:23)
04. Dive (3:53)
05. Aero Zeppelin (3:42)
06. Heart-Shaped Box (4:41)
07. Puss (3:20)
08. In Bloom (4:15)
09. Sliver (2:12)
10. Frances Farmer Will Have Her Revenge On Seattle (4:10)
11. Drain You (3:45)
12. Lithium (4:18)
13. All Apologies (3:50)
14. Big Long Now (1:54)
15. Stay Away (3:32)
16. Aneurysm (4:36)
17. Rape Me (2:51)
18. School (live) (2:26)
19. Floyd The Barber (live) (2:20)
20. About A Girl (live) (2:56)
21. Breed (3:04)
Код:
Код:
Exact Audio Copy V0.99 prebeta 4 from 23. January 2008

EAC extraction logfile from 15. December 2008, 0:08

Nirvana / The Very Best

Used drive  : Optiarc DVD RW AD-7173A   Adapter: 3  ID: 1

Read mode               : Secure
Utilize accurate stream : Yes
Defeat audio cache      : Yes
Make use of C2 pointers : No

Read offset correction                      : 48
Overread into Lead-In and Lead-Out          : No
Fill up missing offset samples with silence : Yes
Delete leading and trailing silent blocks   : No
Null samples used in CRC calculations       : Yes
Used interface                              : Installed external ASPI interface
Gap handling                                : Appended to previous track

Used output format : Internal WAV Routines
Sample format      : 44.100 Hz; 16 Bit; Stereo

TOC of the extracted CD

     Track |   Start  |  Length  | Start sector | End sector
    ---------------------------------------------------------
        1  |  0:00.00 |  5:02.02 |         0    |    22651
        2  |  5:02.02 |  3:40.27 |     22652    |    39178
        3  |  8:42.29 |  3:23.04 |     39179    |    54407
        4  | 12:05.33 |  3:53.12 |     54408    |    71894
        5  | 15:58.45 |  3:42.32 |     71895    |    88576
        6  | 19:41.02 |  4:40.55 |     88577    |   109631
        7  | 24:21.57 |  3:20.37 |    109632    |   124668
        8  | 27:42.19 |  4:14.57 |    124669    |   143775
        9  | 31:57.01 |  2:12.22 |    143776    |   153697
       10  | 34:09.23 |  4:09.64 |    153698    |   172436
       11  | 38:19.12 |  3:45.10 |    172437    |   189321
       12  | 42:04.22 |  4:17.59 |    189322    |   208655
       13  | 46:22.06 |  3:50.32 |    208656    |   225937
       14  | 50:12.38 |  1:53.67 |    225938    |   234479
       15  | 52:06.30 |  3:32.12 |    234480    |   250391
       16  | 55:38.42 |  4:35.62 |    250392    |   271078
       17  | 60:14.29 |  2:51.05 |    271079    |   283908
       18  | 63:05.34 |  2:25.49 |    283909    |   294832
       19  | 65:31.08 |  2:19.52 |    294833    |   305309
       20  | 67:50.60 |  2:55.57 |    305310    |   318491
       21  | 70:46.42 |  3:04.22 |    318492    |   332313

Track  1

     Filename D:\Works\CD-Rips\Nirvana - 1994 - The Very Best\Nirvana - 1994 - The Very Best\01. Nirvana - Nirvana , Smells Like Teen Spirit.wav

     Pre-gap length  0:00:02.00

     Peak level 97.7 %
     Track quality 99.9 %
     Test CRC 6C635FE5
     Copy CRC 6C635FE5
     Track not present in AccurateRip database
     Copy OK

Track  2

     Filename D:\Works\CD-Rips\Nirvana - 1994 - The Very Best\Nirvana - 1994 - The Very Best\02. Nirvana - Nirvana , Come As You Are.wav

     Pre-gap length  0:00:00.74

     Peak level 97.7 %
     Track quality 100.0 %
     Test CRC CECC32A8
     Copy CRC CECC32A8
     Track not present in AccurateRip database
     Copy OK

Track  3

     Filename D:\Works\CD-Rips\Nirvana - 1994 - The Very Best\Nirvana - 1994 - The Very Best\03. Nirvana - Nirvana , Oh, The Guilt.wav

     Pre-gap length  0:00:01.00

     Peak level 100.0 %
     Track quality 100.0 %
     Test CRC 28ACEF7D
     Copy CRC 28ACEF7D
     Track not present in AccurateRip database
     Copy OK

Track  4

     Filename D:\Works\CD-Rips\Nirvana - 1994 - The Very Best\Nirvana - 1994 - The Very Best\04. Nirvana - Nirvana , Dive.wav

     Pre-gap length  0:00:00.74

     Peak level 100.0 %
     Track quality 100.0 %
     Test CRC D1E82B36
     Copy CRC D1E82B36
     Track not present in AccurateRip database
     Copy OK

Track  5

     Filename D:\Works\CD-Rips\Nirvana - 1994 - The Very Best\05. Nirvana - Nirvana , Aero Zeppelin.wav

     Peak level 100.0 %
     Track quality 100.0 %
     Test CRC F8592767
     Copy CRC F8592767
     Track not present in AccurateRip database
     Copy OK

Track  6

     Filename D:\Works\CD-Rips\Nirvana - 1994 - The Very Best\Nirvana - 1994 - The Very Best\06. Nirvana - Nirvana , Heart-Shaped Box.wav

     Pre-gap length  0:00:01.74

     Peak level 97.7 %
     Track quality 100.0 %
     Test CRC 081AFD84
     Copy CRC 081AFD84
     Track not present in AccurateRip database
     Copy OK

Track  7

     Filename D:\Works\CD-Rips\Nirvana - 1994 - The Very Best\Nirvana - 1994 - The Very Best\07. Nirvana - Jesus Lizard , Puss.wav

     Pre-gap length  0:00:00.74

     Peak level 99.9 %
     Track quality 100.0 %
     Test CRC B2B936AE
     Copy CRC B2B936AE
     Track not present in AccurateRip database
     Copy OK

Track  8

     Filename D:\Works\CD-Rips\Nirvana - 1994 - The Very Best\Nirvana - 1994 - The Very Best\08. Nirvana - Nirvana , In Bloom.wav

     Pre-gap length  0:00:00.74

     Peak level 97.7 %
     Track quality 100.0 %
     Test CRC 10F140D0
     Copy CRC 10F140D0
     Track not present in AccurateRip database
     Copy OK

Track  9

     Filename D:\Works\CD-Rips\Nirvana - 1994 - The Very Best\Nirvana - 1994 - The Very Best\09. Nirvana - Nirvana , Sliver.wav

     Pre-gap length  0:00:00.74

     Peak level 100.0 %
     Track quality 100.0 %
     Test CRC 1CE338E4
     Copy CRC 1CE338E4
     Track not present in AccurateRip database
     Copy OK

Track 10

     Filename D:\Works\CD-Rips\Nirvana - 1994 - The Very Best\Nirvana - 1994 - The Very Best\10. Nirvana - Nirvana , Frances Farmer Will Have Her Revenge On Seattle.wav

     Pre-gap length  0:00:00.74

     Peak level 97.7 %
     Track quality 100.0 %
     Test CRC 6B96EA2F
     Copy CRC 6B96EA2F
     Track not present in AccurateRip database
     Copy OK

Track 11

     Filename D:\Works\CD-Rips\Nirvana - 1994 - The Very Best\Nirvana - 1994 - The Very Best\11. Nirvana - Nirvana , Drain You.wav

     Pre-gap length  0:00:00.74

     Peak level 97.7 %
     Track quality 99.9 %
     Test CRC AA0FD2B5
     Copy CRC AA0FD2B5
     Track not present in AccurateRip database
     Copy OK

Track 12

     Filename D:\Works\CD-Rips\Nirvana - 1994 - The Very Best\Nirvana - 1994 - The Very Best\12. Nirvana - Nirvana , Lithium.wav

     Pre-gap length  0:00:00.74

     Peak level 97.7 %
     Track quality 100.0 %
     Test CRC 0A3E4A8D
     Copy CRC 0A3E4A8D
     Track not present in AccurateRip database
     Copy OK

Track 13

     Filename D:\Works\CD-Rips\Nirvana - 1994 - The Very Best\Nirvana - 1994 - The Very Best\13. Nirvana - Nirvana , All Apologies.wav

     Pre-gap length  0:00:00.74

     Peak level 97.7 %
     Track quality 100.0 %
     Test CRC 4A695FD9
     Copy CRC 4A695FD9
     Track not present in AccurateRip database
     Copy OK

Track 14

     Filename D:\Works\CD-Rips\Nirvana - 1994 - The Very Best\Nirvana - 1994 - The Very Best\14. Nirvana - Nirvana , Big Long Now.wav

     Pre-gap length  0:00:00.74

     Peak level 100.0 %
     Track quality 99.9 %
     Test CRC 4F45F070
     Copy CRC 4F45F070
     Track not present in AccurateRip database
     Copy OK

Track 15

     Filename D:\Works\CD-Rips\Nirvana - 1994 - The Very Best\Nirvana - 1994 - The Very Best\15. Nirvana - Nirvana , Stay Away.wav

     Pre-gap length  0:00:00.74

     Peak level 97.7 %
     Track quality 99.9 %
     Test CRC A6A8472F
     Copy CRC A6A8472F
     Track not present in AccurateRip database
     Copy OK

Track 16

     Filename D:\Works\CD-Rips\Nirvana - 1994 - The Very Best\Nirvana - 1994 - The Very Best\16. Nirvana - Nirvana , Aneurysm.wav

     Pre-gap length  0:00:00.74

     Peak level 100.0 %
     Track quality 100.0 %
     Test CRC A569FD7C
     Copy CRC A569FD7C
     Track not present in AccurateRip database
     Copy OK

Track 17

     Filename D:\Works\CD-Rips\Nirvana - 1994 - The Very Best\Nirvana - 1994 - The Very Best\17. Nirvana - Nirvana , Rape Me.wav

     Pre-gap length  0:00:00.74

     Peak level 97.7 %
     Track quality 100.0 %
     Test CRC 923ACD9E
     Copy CRC 923ACD9E
     Track not present in AccurateRip database
     Copy OK

Track 18

     Filename D:\Works\CD-Rips\Nirvana - 1994 - The Very Best\Nirvana - 1994 - The Very Best\18. Nirvana - Nirvana , School (live).wav

     Pre-gap length  0:00:00.74

     Peak level 100.0 %
     Track quality 100.0 %
     Test CRC 9714C190
     Copy CRC 9714C190
     Track not present in AccurateRip database
     Copy OK

Track 19

     Filename D:\Works\CD-Rips\Nirvana - 1994 - The Very Best\Nirvana - 1994 - The Very Best\19. Nirvana - Nirvana , Floyd The Barber (live).wav

     Pre-gap length  0:00:00.74

     Peak level 100.0 %
     Track quality 100.0 %
     Test CRC 22C40D4E
     Copy CRC 22C40D4E
     Track not present in AccurateRip database
     Copy OK

Track 20

     Filename D:\Works\CD-Rips\Nirvana - 1994 - The Very Best\Nirvana - 1994 - The Very Best\20. Nirvana - Nirvana , About A Girl (live).wav

     Pre-gap length  0:00:00.74

     Peak level 99.3 %
     Track quality 100.0 %
     Test CRC 136F96E6
     Copy CRC 136F96E6
     Track not present in AccurateRip database
     Copy OK

Track 21

     Filename D:\Works\CD-Rips\Nirvana - 1994 - The Very Best\Nirvana - 1994 - The Very Best\21. Nirvana - Nirvana , Breed.wav

     Pre-gap length  0:00:00.74

     Peak level 97.7 %
     Track quality 99.8 %
     Test CRC 05AA9289
     Copy CRC 05AA9289
     Track not present in AccurateRip database
     Copy OK

None of the tracks are present in the AccurateRip database

No errors occurred

End of status report
Код:
Код:
-----------------------

DON'T MODIFY THIS FILE

-----------------------

PERFORMER: auCDtect Task Manager, ver. 1.6.0 RC1 build 1.6.0.1
Copyright (c) 2008-2010 y-soft. All rights reserved
http:/y-soft.org

ANALYZER: auCDtect: CD records authenticity detector, version 0.8.2
Copyright (c) 2004 Oleg Berngardt. All rights reserved.
Copyright (c) 2004 Alexander Djourik. All rights reserved.

FILE: 21. Nirvana - Breed.flac
  Size: 22435611 Hash: 274871C8DB1BFD6686A9AFF5E2B83C1F Accuracy: -m0
  Conclusion: CDDA 100%
  Signature: 13E28E89DE252918BCC66F94413CA4CA93992E43
FILE: 20. Nirvana - About A Girl (live).flac
  Size: 23274015 Hash: 0F424A05E931A42C954C9EC60B2D6E0C Accuracy: -m0
  Conclusion: CDDA 100%
  Signature: 51030CC2844CA4DC5E1A74153E083EF0C3071D5C
FILE: 19. Nirvana - Floyd The Barber (live).flac
  Size: 18477720 Hash: 8A194FE61C35E4CBC44787C726ACFC4F Accuracy: -m0
  Conclusion: CDDA 100%
  Signature: 136B0E268FA38F40FB64764E3301BAEFADC52B35
FILE: 18. Nirvana - School (live).flac
  Size: 19221780 Hash: 35D6F05F1F0BD9DF26BCFEF4F905D343 Accuracy: -m0
  Conclusion: CDDA 100%
  Signature: D1F76C9CC6A059A02CE6566E80545628E202B4FB
FILE: 17. Nirvana - Rape Me.flac
  Size: 19018888 Hash: CAF76E61C66BEE4480DF67FE3DB4D64A Accuracy: -m0
  Conclusion: CDDA 100%
  Signature: 6D4E95D97F70171F74E50AE6374B3F299BB5EE5E
FILE: 16. Nirvana - Aneurysm.flac
  Size: 32102423 Hash: C52A5BDA48935D330FACF494D869BD4C Accuracy: -m0
  Conclusion: CDDA 100%
  Signature: 5C15F3F6DE1D7966263D35088E684D3BE2F17FA5
FILE: 15. Nirvana - Stay Away.flac
  Size: 24739483 Hash: F177F6DA8F8CFFA6DCC4918A9D4761D8 Accuracy: -m0
  Conclusion: CDDA 100%
  Signature: 2B56B26A632BB11DB64C093136557CAE823A2884
FILE: 14. Nirvana - Big Long Now.flac
  Size: 13315024 Hash: 94D1E8C7A318E15C2DBE59577ACCD2F7 Accuracy: -m0
  Conclusion: CDDA 100%
  Signature: 1BE212BBB68271C2FAD7563C20431588F22F46EA
FILE: 13. Nirvana - All Apologies.flac
  Size: 26141631 Hash: 181F80A5E4D80426E2CA9E79C6EEDEE1 Accuracy: -m0
  Conclusion: CDDA 100%
  Signature: 770E01D20D787CAC1CE366961A09756B0C118213
FILE: 12. Nirvana - Lithium.flac
  Size: 29497205 Hash: 6279ADBD8310D150B8D22EA6F3B259B4 Accuracy: -m0
  Conclusion: CDDA 100%
  Signature: 9247541CA3138A2569521E78760695FBF3615D08
FILE: 11. Nirvana - Drain You.flac
  Size: 26810000 Hash: 85381459E977B65D0BAFD02D8015F64D Accuracy: -m0
  Conclusion: CDDA 100%
  Signature: A4684403E1C686694358A9C0F5B18C444AC3D197
FILE: 10. Nirvana - Frances Farmer Will Have Her Revenge On Seattle.flac
  Size: 29957312 Hash: D9EF2F541627A6542EBD78F087B2F7B7 Accuracy: -m0
  Conclusion: CDDA 99%
  Signature: 947320C989820B441DC95CFD00042956A1F41C14
FILE: 09. Nirvana - Sliver.flac
  Size: 15389494 Hash: 2EC18ED6BB1877ADDB85CA4728E67F2A Accuracy: -m0
  Conclusion: CDDA 99%
  Signature: 670C7997ED8718B9A766565E957E53955D3E999E
FILE: 08. Nirvana - In Bloom.flac
  Size: 31562725 Hash: 9068B91F0B84FFE2BB963FB5A82C4782 Accuracy: -m0
  Conclusion: CDDA 100%
  Signature: 1273B770B271050E057165C59BF860431D8D73AC
FILE: 07. Nirvana - Puss.flac
  Size: 25241745 Hash: 266930246E973A84464903C8FEA95C13 Accuracy: -m0
  Conclusion: CDDA 100%
  Signature: A01C86392C01CA7B21C0B5F143F2582E3B0A1035
FILE: 06. Nirvana - Heart-Shaped Box.flac
  Size: 31748729 Hash: 42831C8972B100ADE20B375CA41C086D Accuracy: -m0
  Conclusion: CDDA 100%
  Signature: B66EF964C42C184AC1786DF740BA9229332D8879
FILE: 05. Nirvana - Aero Zeppelin.flac
  Size: 25820224 Hash: 3B0B5962B685AC21AAF93A39BDB14EA0 Accuracy: -m0
  Conclusion: CDDA 100%
  Signature: 6DE0A16C21D9AE352C0D81B30F15B441EE9899F5
FILE: 04. Nirvana - Dive.flac
  Size: 28471413 Hash: D14C5843FBA1B8C56549D6FDA7548AAD Accuracy: -m0
  Conclusion: CDDA 99%
  Signature: BBA40C89B9645FA426FE595EDE0941647DDD9AAF
FILE: 03. Nirvana - Oh, The Guilt.flac
  Size: 23989044 Hash: 42BC8655CFF330D50D13B7C744B39E19 Accuracy: -m0
  Conclusion: CDDA 100%
  Signature: 3AEDFDA66F6F2F8A7D53717F9145AD7DB12AFA65
FILE: 02. Nirvana - Come As You Are.flac
  Size: 25071898 Hash: 0BDF178B8FF580AE0C2DF33F36FA1655 Accuracy: -m0
  Conclusion: CDDA 100%
  Signature: 7FA3AB726866C6582CDA026932EADF796C736984
FILE: 01. Nirvana - Smells Like Teen Spirit.flac
  Size: 36105324 Hash: 36CE5A85F2D1625C77D7B0ACBFA6610B Accuracy: -m0
  Conclusion: CDDA 100%
  Signature: 6F514427B200A2515CDB7D43385A2C3B9917A419
Правила, инструкции, FAQ!!!
Торрент  Добавлен [16 мар 2014, 00:38] Скачать торрент Магнет ссылка
Скачать торрент
[ Размер 22.15 КБ / Просмотров 69 ]

Статус  
 
Размер  506.03 МБ
Приватный: Нет (DHT включён)
.torrent скачан  5
 


     Отправить личное сообщение
   
Страница 1 из 1
Показать сообщения за:  Поле сортировки  
Начать новую тему Ответить на тему


Сейчас этот форум просматривают: нет зарегистрированных пользователей и гости: 0


Вы не можете начинать темы
Вы не можете отвечать на сообщения
Вы не можете редактировать свои сообщения
Вы не можете удалять свои сообщения
Вы не можете добавлять вложения

Перейти:  
cron