Начать новую тему Ответить на тему
Статистика раздачи
Размер: 619.83 МБ | Добавлен: 16 мар 2014, 00:53 | Скачали: 4
Сидеров: 1  [0 байт/сек]    Личеров: 0  [0 байт/сек]
Пред. тема | След. тема 

Автор
Сообщение

СообщениеДобавлено: 16 мар 2014, 00:53 

Ответить с цитатой 

Nirvana - In Utero (1993) 20th Anniversary Edition 2013

Год: 1993 (2013)
Жанр: Rock, Alternative, Grunge
Продолжительность: 01:18:50
Лейбл: Geffen Records/Universal Music
Каталожный №: B0019191-02
Сканы: Комплект
Кодек: FLAC (image+.cue)
Битрейт: Lossless

Трек лист:
01. Serve The Servants [3:37]
02. Scentless Apprentice [3:48]
03. Heart-Shaped Box [4:41]
04. Rape Me [2:50]
05. Frances Farmer Will Have Her Revenge On Seattle [4:10]
06. Dumb [2:32]
07. Very Ape [1:56]
08. Milk It [3:55]
09. Pennyroyal Tea [3:39]
10. Radio Friendly Unit Shifter [4:52]
11. Tourette's [1:35]
12. All Apologies [3:56]
B-Sides & Bonus Ttracks
13. Gallons Of Rubbing Alcohol Flow Through The Ship [7:34]
14. Marigold ('Heart-Shaped Box' B-Side) [2:34]
15. Moist Vagina (2013 Mix) ('All Apologies' B-Side) [3:33]*
16. Sappy (2013 Mix) (From 'No Alternative') [3:26]*
17. I Hate Myself And Want To Die (2013 Mix) [3:00]*
18. Pennyroyal Tea (Mixed By Scott Litt) [3:36]
19. Heart-Shaped Box (Original Steve Albini 1993 Mix) [4:42]*
20. All Apologies (Original Steve Albini 1993 Mix) [3:53]*

*Previously Unreleased


Код:
Код:
REM GENRE Alternative
REM DATE 1993
REM DISCID 1C114E14
REM COMMENT "ExactAudioCopy v1.0b2"
PERFORMER "Nirvana"
TITLE "In Utero [20th Anniversary Edition]"
FILE "Nirvana - In Utero [20th Anniversary Edition].flac" WAVE
  TRACK 01 AUDIO
    TITLE "Serve The Servants"
    PERFORMER "Nirvana"
    INDEX 01 00:00:00
  TRACK 02 AUDIO
    TITLE "Scentless Apprentice"
    PERFORMER "Nirvana"
    INDEX 01 03:37:13
  TRACK 03 AUDIO
    TITLE "Heart-Shaped Box"
    PERFORMER "Nirvana"
    INDEX 01 07:25:17
  TRACK 04 AUDIO
    TITLE "Rape Me"
    PERFORMER "Nirvana"
    INDEX 01 12:06:29
  TRACK 05 AUDIO
    TITLE "Frances Farmer Will Have Her Revenge On Seattle"
    PERFORMER "Nirvana"
    INDEX 01 14:56:29
  TRACK 06 AUDIO
    TITLE "Dumb"
    PERFORMER "Nirvana"
    INDEX 01 19:06:30
  TRACK 07 AUDIO
    TITLE "Very Ape"
    PERFORMER "Nirvana"
    INDEX 01 21:38:22
  TRACK 08 AUDIO
    TITLE "Milk It"
    PERFORMER "Nirvana"
    INDEX 01 23:34:08
  TRACK 09 AUDIO
    TITLE "Pennyroyal Tea"
    PERFORMER "Nirvana"
    INDEX 01 27:28:64
  TRACK 10 AUDIO
    TITLE "Radio Friendly Unit Shifter"
    PERFORMER "Nirvana"
    INDEX 01 31:07:50
  TRACK 11 AUDIO
    TITLE "Tourette's"
    PERFORMER "Nirvana"
    INDEX 01 35:59:16
  TRACK 12 AUDIO
    TITLE "All Apologies"
    PERFORMER "Nirvana"
    INDEX 01 37:34:45
  TRACK 13 AUDIO
    TITLE "Gallons Of Rubbing Alcohol Flow Through The Ship (International Album Bonus T..."
    PERFORMER "Nirvana"
    INDEX 00 41:25:42
    INDEX 01 41:31:06
  TRACK 14 AUDIO
    TITLE "Marigold ('Heart-Shaped Box' B-Side)"
    PERFORMER "Nirvana"
    INDEX 01 49:05:34
  TRACK 15 AUDIO
    TITLE "Moist Vagina (2013 Mix) ('All Apologies' B-Side)"
    PERFORMER "Nirvana"
    INDEX 01 51:39:55
  TRACK 16 AUDIO
    TITLE "Sappy (2013 Mix) (From 'No Alternative')"
    PERFORMER "Nirvana"
    INDEX 01 55:13:14
  TRACK 17 AUDIO
    TITLE "I Hate Myself And Want To Die (2013 Mix) (From 'The Beavis And Butthead Exper..."
    PERFORMER "Nirvana"
    INDEX 00 58:38:22
    INDEX 01 58:39:42
  TRACK 18 AUDIO
    TITLE "Pennyroyal Tea (Mixed By Scott Litt)"
    PERFORMER "Nirvana"
    INDEX 01 61:39:18
  TRACK 19 AUDIO
    TITLE "Heart-Shaped Box (Original Mix By Steve Albini)"
    PERFORMER "Nirvana"
    INDEX 01 65:15:07
  TRACK 20 AUDIO
    TITLE "All Apologies (Original Mix By Steve Albini)"
    PERFORMER "Nirvana"
    INDEX 01 69:56:64
Код:
Код:
Exact Audio Copy V1.0 beta 2 from 29. April 2011

EAC extraction logfile from 24. September 2013, 17:50

Nirvana / In Utero [20th Anniversary Edition]

Used drive  : HL-DT-STBD-RE  BH14NS40   Adapter: 0  ID: 2

Read mode               : Secure
Utilize accurate stream : Yes
Defeat audio cache      : Yes
Make use of C2 pointers : No

Read offset correction                      : 6
Overread into Lead-In and Lead-Out          : No
Fill up missing offset samples with silence : Yes
Delete leading and trailing silent blocks   : No
Null samples used in CRC calculations       : Yes
Used interface                              : Native Win32 interface for Win NT & 2000

Used output format              : User Defined Encoder
Selected bitrate                : 1024 kBit/s
Quality                         : High
Add ID3 tag                     : No
Command line compressor         : C:\Program Files (x86)\Exact Audio Copy\Flac\flac.exe
Additional command line options : -V -5 -T "artist=%albumartist%" -T "title=%title%" -T "album=%albumtitle%" -T "date=%year%" -T "genre=%genre%" -T "tracknumber=%tracknr%" %source%

TOC of the extracted CD

     Track |   Start  |  Length  | Start sector | End sector
    ---------------------------------------------------------
        1  |  0:00.00 |  3:37.13 |         0    |    16287
        2  |  3:37.13 |  3:48.04 |     16288    |    33391
        3  |  7:25.17 |  4:41.12 |     33392    |    54478
        4  | 12:06.29 |  2:50.00 |     54479    |    67228
        5  | 14:56.29 |  4:10.01 |     67229    |    85979
        6  | 19:06.30 |  2:31.67 |     85980    |    97371
        7  | 21:38.22 |  1:55.61 |     97372    |   106057
        8  | 23:34.08 |  3:54.56 |    106058    |   123663
        9  | 27:28.64 |  3:38.61 |    123664    |   140074
       10  | 31:07.50 |  4:51.41 |    140075    |   161940
       11  | 35:59.16 |  1:35.29 |    161941    |   169094
       12  | 37:34.45 |  3:56.36 |    169095    |   186830
       13  | 41:31.06 |  7:34.28 |    186831    |   220908
       14  | 49:05.34 |  2:34.21 |    220909    |   232479
       15  | 51:39.55 |  3:33.34 |    232480    |   248488
       16  | 55:13.14 |  3:26.28 |    248489    |   263966
       17  | 58:39.42 |  2:59.51 |    263967    |   277442
       18  | 61:39.18 |  3:35.64 |    277443    |   293631
       19  | 65:15.07 |  4:41.57 |    293632    |   314763
       20  | 69:56.64 |  3:53.11 |    314764    |   332249

Range status and errors

Selected range

     Filename C:\EAC\Nirvana - (1993) In Utero [2013 20th Anniversary Edition]\Nirvana - In Utero [20th Anniversary Edition].wav

     Peak level 97.9 %
     Extraction speed 4.8 X
     Range quality 100.0 %
     Test CRC 3BE57AA9
     Copy CRC 3BE57AA9
     Copy OK

No errors occurred

AccurateRip summary

Track  1  not present in database
Track  2  not present in database
Track  3  not present in database
Track  4  not present in database
Track  5  not present in database
Track  6  not present in database
Track  7  not present in database
Track  8  not present in database
Track  9  not present in database
Track 10  not present in database
Track 11  not present in database
Track 12  not present in database
Track 13  not present in database
Track 14  not present in database
Track 15  not present in database
Track 16  not present in database
Track 17  not present in database
Track 18  not present in database
Track 19  not present in database
Track 20  not present in database

None of the tracks are present in the AccurateRip database

End of status report

==== Log checksum 85A6B4B54E9D7B1886B96A1EAFCCED357DAACF5448BEEE2D16231C38073A363B ====

Код:
Код:
-----------------------

DON'T MODIFY THIS FILE

-----------------------

PERFORMER: auCDtect Task Manager, ver. 1.6.0 RC1 build 1.6.0.1
Copyright (c) 2008-2010 y-soft. All rights reserved
http:/y-soft.org

ANALYZER: auCDtect: CD records authenticity detector, version 0.8.2
Copyright (c) 2004 Oleg Berngardt. All rights reserved.
Copyright (c) 2004 Alexander Djourik. All rights reserved.

FILE: Nirvana - In Utero [20th Anniversary Edition].flac
  Size: 495313535 Hash: B6DFE547225B7C33BA56E7596DD03743 Accuracy: -m0
  Conclusion: CDDA 100%
  Signature: 193B51F9052487D34A163FEE48D933B0DF77294E

Правила, инструкции, FAQ!!!
Торрент  Добавлен [16 мар 2014, 00:53] Скачать торрент Магнет ссылка
Скачать торрент
[ Размер 13.74 КБ / Просмотров 82 ]

Статус  
 
Размер  619.83 МБ
Приватный: Нет (DHT включён)
.torrent скачан  4
 


     Отправить личное сообщение
   
Страница 1 из 1
Показать сообщения за:  Поле сортировки  
Начать новую тему Ответить на тему


Сейчас этот форум просматривают: нет зарегистрированных пользователей и гости: 0


Вы не можете начинать темы
Вы не можете отвечать на сообщения
Вы не можете редактировать свои сообщения
Вы не можете удалять свои сообщения
Вы не можете добавлять вложения

Перейти:  
cron