Начать новую тему Ответить на тему
Статистика раздачи
Размер: 1.13 ГБ | Добавлен: 24 ноя 2019, 15:44 | Скачали: 4
Сидеров: 11  [0 байт/сек]    Личеров: 2  [0 байт/сек]
Пред. тема | След. тема 

Автор
Сообщение

СообщениеДобавлено: 24 ноя 2019, 15:44 

Ответить с цитатой 

Nina Nesbitt - The Sun Will Come up, The Seasons Will Change & The Flowers Will Fall


Формат записи/Источник записи: [TR24][OF]
Наличие водяных знаков: Нет
Год издания: 2019
Жанр: Pop, Indie Pop
Издатель (лейбл): Cooking Vinyl Limited
Продолжительность: 01:43:29
Наличие сканов в содержимом раздачи: Только обложка альбома
Контейнер: FLAC (*.flac)
Тип рипа: tracks
Разрядность: 24/44.1
Формат: PCM
Количество каналов: 2.0
Источник (релизер): highresaudio.com
1. Sacred (2:37)
2. The Moments I'm Missing (3:47)
3. The Best You Had (2:57)
4. Colder (3:08)
5. Loyal to Me (3:13)
6. Somebody Special (3:21)
7. Is It Really Me You're Missing (3:53)
8. Love Letter (3:34)
9. Empire (3:35)
10. Chloe (3:54)
11. Things I Say When You Sleep (3:36)
12. Last December (4:56)
13. The Sun Will Come up, The Seasons Will Change (3:35)
14. Black & Blue (3:13)
15. Ungrateful (2:41)
16. Toxic (4:00)
17. Still Waiting to Start (3:03)
18. Sacred (Acoustic Version) (2:22)
19. The Moments I'm Missin (Stripped Version) (4:19)
20. The Best You Had (Acoustic Version) (3:19)
21. Colder (Acoustic Version) (3:26)
22. Loyal to Me (Acoustic Version) (3:13)
23. Somebody Special (Acoustic Version) (3:40)
24. Is It Really Me You're Missing (Acoustic Version) (3:53)
25. Love Letter (Acoustic Version) (3:37)
26. Empire (Acoustic Version) (3:10)
27. Chloe (Acoustic Version) (3:28)
28. Things I Say When You Sleep (Acoustic Version) (3:13)
29. Last December (Acoustic Version) (4:32)
30. The Sun Will Come up, The Seasons Will Change (Acoustic Version) (2:27)
Код:
foobar2000 1.4.8 / Dynamic Range Meter 1.1.1
log date: 2019-11-22 18:32:38
--------------------------------------------------------------------------------
Analyzed: Nina Nesbitt / The Sun Will Come up, The Seasons Will Change & The Flowers Will Fall
--------------------------------------------------------------------------------
DR         Peak         RMS     Duration Track
--------------------------------------------------------------------------------
DR6       -1.02 dB    -9.71 dB      2:37 01-Sacred
DR5       -1.02 dB    -9.23 dB      3:47 02-The Moments I'm Missing
DR5       -1.00 dB    -7.50 dB      2:57 03-The Best You Had
DR4       -1.02 dB    -7.88 dB      3:08 04-Colder
DR6       -1.01 dB    -9.30 dB      3:13 05-Loyal to Me
DR6       -1.01 dB    -9.15 dB      3:21 06-Somebody Special
DR5       -0.99 dB    -8.44 dB      3:53 07-Is It Really Me You're Missing
DR5       -1.02 dB    -8.70 dB      3:34 08-Love Letter
DR5       -1.00 dB    -8.65 dB      3:35 09-Empire
DR4       -1.01 dB    -9.30 dB      3:54 10-Chloe
DR7       -1.03 dB   -11.70 dB      3:36 11-Things I Say When You Sleep
DR6       -1.02 dB   -11.13 dB      4:56 12-Last December
DR5       -1.01 dB    -8.82 dB      3:35 13-The Sun Will Come up, The Seasons Will Change
DR5       -1.12 dB    -9.36 dB      3:13 14-Black & Blue
DR7       -1.12 dB   -10.19 dB      2:41 15-Ungrateful
DR7       -1.12 dB   -10.50 dB      4:00 16-Toxic
DR5       -1.12 dB    -9.50 dB      3:03 17-Still Waiting to Start
DR10      -1.12 dB   -13.55 dB      2:22 18-Sacred (Acoustic Version)
DR7       -1.01 dB   -10.95 dB      4:19 19-The Moments I'm Missing (Stripped Version)
DR8       -1.01 dB   -12.09 dB      3:19 20-The Best You Had (Acoustic Version)
DR6       -1.12 dB    -9.32 dB      3:26 21-Colder (Acoustic Version)
DR7       -1.00 dB    -9.08 dB      3:13 22-Loyal to Me (Acoustic Version)
DR7       -1.11 dB   -10.06 dB      3:40 23-Somebody Special (Acoustic Version)
DR10      -1.12 dB   -14.08 dB      3:53 24-Is It Really Me You're Missing (Acoustic Version)
DR8       -1.12 dB   -10.78 dB      3:37 25-Love Letter (Acoustic Version)
DR8       -1.12 dB   -12.13 dB      3:10 26-Empire (Acoustic Version)
DR9       -1.12 dB   -12.60 dB      3:28 27-Chloe (Acoustic Version)
DR10      -1.12 dB   -14.39 dB      3:13 28-Things I Say When You Sleep (Acoustic Version)
DR8       -1.12 dB   -12.24 dB      4:32 29-Last December (Acoustic Version)
DR10      -1.12 dB   -13.20 dB      2:27 30-The Sun Will Come up, The Seasons Will Change (Acoustic Version)
--------------------------------------------------------------------------------
Number of tracks:  30
Official DR value: DR7
Samplerate:        44100 Hz
Channels:          2
Bits per sample:   24
Bitrate:           1603 kbps
Codec:             FLAC
================================================================================
The Nina of 2019 is not the Nina of 2013, in her own words “I’ve grown up.” The album has been three years in the making and bears no hint of compromise as Nina demonstrates her unique talent for acute lyrical observations and ear-worm melodies. Heralding a musical change of direction from Nina with more obvious pop influences, the album is a scintillating journey through a whole range of genres and moods. “I'm so proud of this album,” she says. “This is the album I always wanted to make on my own terms. It’s an honest account of somebody in their early ‘20s, giving a real window into their often ever changing life.”
The deluxe edition also features another original new song from the album session in the shape of ‘Ungrateful’ as well as Nina’s intimate, torch song approach to the Britney Spears hit ‘Toxic’ which has become a staple of her recent live shows. The package is completed with acoustic versions of every song from the original album, most of which are previously unreleased. Stripping back the material to intimate acoustic arrangements highlights the compelling and emotionally revealing song-writing that has become a hallmark of Nina’s sound.
Правила, инструкции, FAQ!!!
Торрент  Добавлен [24 ноя 2019, 15:44] Скачать торрент Магнет ссылка
Скачать торрент
[ Размер 13.83 КБ / Просмотров 22 ]

Статус
Проверен 
 
Размер  1.13 ГБ
Приватный: Нет (DHT включён)
.torrent скачан  4
 


     Отправить личное сообщение
   
Страница 1 из 1
Показать сообщения за:  Поле сортировки  
Начать новую тему Ответить на тему


Сейчас этот форум просматривают: нет зарегистрированных пользователей и гости: 0


Вы не можете начинать темы
Вы не можете отвечать на сообщения
Вы не можете редактировать свои сообщения
Вы не можете удалять свои сообщения
Вы не можете добавлять вложения

Перейти:  
cron