Начать новую тему Ответить на тему
Статистика раздачи
Размер: 252.29 МБ | Добавлен: 16 мар 2014, 00:15 | Скачали: 0
Сидеров: 1  [0 байт/сек]    Личеров: 0  [0 байт/сек]
Пред. тема | След. тема 

Автор
Сообщение

СообщениеДобавлено: 16 мар 2014, 00:15 

Ответить с цитатой 

Nicholas Greenwood - Cold Cuts (1972) Released 2007

Жанр: Progressive Rock
Год: 1972
Страна: UK
Released: 2007/Italy
Label: Akarma
Catalog#: AK 289
Аудио кодек: FLAC
Тип рипа: tracks + .cue
Битрейт аудио: lossless
Продолжительность: 00:39:03
Источник-релизер: alex752
Scans: в раздаче
Треклист:
01. A Sea Of Holy Pleasure Parts I,II,III (7:13)
02. Hope/Ambitions (2:53)
03. Corruption (3:10)
04. Lead Me On (3:47)
05. Big Machine (2:24)
06. Close The Doors (4:27)
07. Melancholy (3:25)
08. Images (3:21)
09. Promised Land (3:10)
10. Realisation And Death (5:13)
#777
Единственный сольный альбом гитариста и вокалиста Nicholas Greenwod, выпущенный в 1972 году на крошечном лейбле “Kingdom” в “потрясающей” обложке. Nicholas Greenwood впервые стал известен как участник “The Crazy World Of Arthur Brown”, играл вместе с Vincent Crane (“Atomic Rooster”) и Carl Palmer (ELP) и оставался с Артуром Брауном до середины 70-х. Позже вошел в состав “Khan”, где работал вместе с Steve Hillage и Dave Stewart. После распада этой группы Greenwood вместе с рядом других музыкантов (в числе которых участники “Mothers Of Invention”, “Kingdom Come” и “Les Fleur De Lys”) записал альбом “Cold Cuts”...
Многим показалось, что, попав на стадионы и в суперсовременные студии, прог стал более помпезным, более коммерческим и менее интересным. А некоторым стадионы были ни к чему - они продолжали творить шедевры в подвалах.
Изумительный Cold Cuts - пример такого шедевра. Он показывает, что жизнь есть везде - не только на Марсе, но и за пределами мейнстрима. Состоящий из трех частей открывающий трек Opener A Sea Of Holy Pleasure это само совершенство! Как, впрочем, и весь альбом. Очень мощная работа и изумительная музыка.

Personnel:
- Nicholas Greenwood - bass, vocals, effects
- Bunk Gardner - woodwinds
- Dick Henningham - organ
- Eric Peachey - drums
- Bryn Howarth - guitar
- Chris Pritchard - guitar
- Nils Oliver - strings
- Margaret Immerman - strings
- Margaret Shipman - strings
- Janet Lakatos – strings
Код:
Код:
EAC extraction logfile from 16. March 2007, 2:24 for CD
Nicholas Greenwood / Cold cuts

Used drive  : LG      CD-RW CED-8080B   Adapter: 0  ID: 1
Read mode   : Secure with NO C2, accurate stream, disable cache
Read offset correction : 86
Overread into Lead-In and Lead-Out : No

Used output format : Internal WAV Routines
                     44.100 Hz; 16 Bit; Stereo

Other options      :
    Fill up missing offset samples with silence : Yes
    Delete leading and trailing silent blocks : No
    Installed external ASPI interface

Track  1
     Filename G:\bt\Nicholas Greenwood - Cold cuts (1972) [FLAC]\01 - A sea of holy pleasure parts I, II, III.wav

     Pre-gap length  0:00:02.00

     Peak level 98.6 %
     Track quality 100.0 %
     Test CRC 7C304C24
     Copy CRC 7C304C24
     Copy OK

Track  2
     Filename G:\bt\Nicholas Greenwood - Cold cuts (1972) [FLAC]\02 - Hope - Ambitions.wav

     Peak level 80.3 %
     Track quality 100.0 %
     Test CRC A7920879
     Copy CRC A7920879
     Copy OK

Track  3
     Filename G:\bt\Nicholas Greenwood - Cold cuts (1972) [FLAC]\03 - Corruption.wav

     Pre-gap length  0:00:00.01

     Peak level 86.0 %
     Track quality 100.0 %
     Test CRC 70EDBEDD
     Copy CRC 70EDBEDD
     Copy OK

Track  4
     Filename G:\bt\Nicholas Greenwood - Cold cuts (1972) [FLAC]\04 - Lead me on.wav

     Peak level 92.8 %
     Track quality 100.0 %
     Test CRC 9359C3D7
     Copy CRC 9359C3D7
     Copy OK

Track  5
     Filename G:\bt\Nicholas Greenwood - Cold cuts (1972) [FLAC]\05 - Big machine.wav

     Peak level 85.1 %
     Track quality 100.0 %
     Test CRC 2006B13D
     Copy CRC 2006B13D
     Copy OK

Track  6
     Filename G:\bt\Nicholas Greenwood - Cold cuts (1972) [FLAC]\06 - Close the doors.wav

     Pre-gap length  0:00:00.02

     Peak level 100.0 %
     Track quality 100.0 %
     Test CRC B7867CAB
     Copy CRC B7867CAB
     Copy OK

Track  7
     Filename G:\bt\Nicholas Greenwood - Cold cuts (1972) [FLAC]\07 - Melancholy.wav

     Peak level 93.3 %
     Track quality 100.0 %
     Test CRC A7EA1340
     Copy CRC A7EA1340
     Copy OK

Track  8
     Filename G:\bt\Nicholas Greenwood - Cold cuts (1972) [FLAC]\08 - Images.wav

     Peak level 90.1 %
     Track quality 100.0 %
     Test CRC 56609517
     Copy CRC 56609517
     Copy OK

Track  9
     Filename G:\bt\Nicholas Greenwood - Cold cuts (1972) [FLAC]\09 - Promised land.wav

     Peak level 94.3 %
     Track quality 100.0 %
     Test CRC FB933988
     Copy CRC FB933988
     Copy OK

Track 10
     Filename G:\bt\Nicholas Greenwood - Cold cuts (1972) [FLAC]\10 - Realisation and death.wav

     Peak level 95.1 %
     Track quality 99.9 %
     Test CRC 80234B84
     Copy CRC 80234B84
     Copy OK

No errors occured

End of status report
Код:
Код:
-----------------------

DON'T MODIFY THIS FILE

-----------------------

PERFORMER: auCDtect Task Manager, ver. 1.6.0 RC1 build 1.6.0.1
Copyright (c) 2008-2010 y-soft. All rights reserved
http:/y-soft.org

ANALYZER: auCDtect: CD records authenticity detector, version 0.8.2
Copyright (c) 2004 Oleg Berngardt. All rights reserved.
Copyright (c) 2004 Alexander Djourik. All rights reserved.

FILE: 10 - Realisation and death.flac
  Size: 31113524 Hash: 43A4C71A87F74E334BFFF1B49A7D660A Accuracy: -m0
  Conclusion: CDDA 99%
  Signature: B594C8F4156512C570A47F24D6CBE836591B4C6F
FILE: 09 - Promised land.flac
  Size: 20810018 Hash: 2317CFD344EB68582B20E498AE3FE6C0 Accuracy: -m0
  Conclusion: CDDA 100%
  Signature: C0333B814557D8F2B400B40FB01E5A9275C5D23E
FILE: 08 - Images.flac
  Size: 21016973 Hash: F52ED8D83C61AD7939CE23DF334CF1A3 Accuracy: -m0
  Conclusion: CDDA 100%
  Signature: 72BC1A0F8A8E279A95FB6E97E4A330EB5F5901B7
FILE: 07 - Melancholy.flac
  Size: 22580707 Hash: CCF13D7A63D586E707AF8DBDDD64FBBE Accuracy: -m0
  Conclusion: CDDA 100%
  Signature: E5E6269FD6DCC291B00F6FF46C7783DCFD5BD1C1
FILE: 06 - Close the doors.flac
  Size: 32184403 Hash: 2BB6B174C3C722184B41BCEBBF1A026C Accuracy: -m0
  Conclusion: CDDA 100%
  Signature: 46E756403ADCE590B5ACDE82953534B4BBF94B89
FILE: 05 - Big machine.flac
  Size: 13483991 Hash: 8341950FD15A9A14CC0A53B4F87F52CE Accuracy: -m0
  Conclusion: CDDA 100%
  Signature: CBB25507A364129FB6D8939A4C039F31225E18FA
FILE: 04 - Lead me on.flac
  Size: 24171155 Hash: 95EA55BBE915C1F3B567E437FA91E160 Accuracy: -m0
  Conclusion: CDDA 100%
  Signature: FD3C0A8D0DF33144A590115F09699FC27188A40C
FILE: 03 - Corruption.flac
  Size: 20046731 Hash: B5C0B6962D486D609E58F46C1AF370EF Accuracy: -m0
  Conclusion: CDDA 100%
  Signature: EAC00A3D98FCE8EC07F80753835845B6B51D2819
FILE: 02 - Hope - Ambitions.flac
  Size: 19753767 Hash: AEB348759909BD86181811F997869AE6 Accuracy: -m0
  Conclusion: CDDA 100%
  Signature: DBC36D3A92C8387AAE69487DA16D4FEA904F11FD
FILE: 01 - A sea of holy pleasure parts I, II, III.flac
  Size: 44959621 Hash: 06FF7F55ACD239F03811824A728FB013 Accuracy: -m0
  Conclusion: CDDA 100%
  Signature: 6D6AC331A7D64DFA70F491D7D64CEB0343EC6EC5
Правила, инструкции, FAQ!!!
Торрент  Добавлен [16 мар 2014, 00:15] Скачать торрент Магнет ссылка
Скачать торрент
[ Размер 21.31 КБ / Просмотров 26 ]

Статус  
 
Размер  252.29 МБ
Приватный: Нет (DHT включён)
.torrent скачан  0
 


     Отправить личное сообщение
   
Страница 1 из 1
Показать сообщения за:  Поле сортировки  
Начать новую тему Ответить на тему


Сейчас этот форум просматривают: нет зарегистрированных пользователей и гости: 0


Вы не можете начинать темы
Вы не можете отвечать на сообщения
Вы не можете редактировать свои сообщения
Вы не можете удалять свои сообщения
Вы не можете добавлять вложения

Перейти:  
cron
cron