Начать новую тему Ответить на тему
Статистика раздачи
Размер: 489.12 МБ | Добавлен: 16 мар 2014, 00:01 | Скачали: 3
Сидеров: 1  [0 байт/сек]    Личеров: 1  [0 байт/сек]
Пред. тема | След. тема 

Автор
Сообщение

СообщениеДобавлено: 16 мар 2014, 00:01 

Ответить с цитатой 

New Trolls - Concerto Grosso Per 1, № 2 (1971-1976) 2CD Reissue /1991, Crime Japan/

Жанр: Symphonic Rock/Prog Rock/Classic Rock
Год: 1971/1976
Страна: Italy
Released: 1991/Japan
Label: Crime
Аудио кодек: FLAC
Тип рипа: image+.cue
Битрейт аудио: lossless
Продолжительность: 01:23:42
Источник-релизер: novox
Scans: в раздаче
Совместная работа аргентинского композитора Луиса Энрикеса Бакалова и итальянской психоделической рок-группы New Trolls, записанная в оркестровых оранжировках, соединила в себе рок и классику и послужила ярким примером раннего симфо-прога.
#777
Concerto Grosso Per 1
Год: 1971
Catalog#: KICP 2152
Продолжительность: 00:45:57
Трек лист:
01 Allegro (2:18)
02. Adagio (Shadows) (4:52)
03. Cadenza - Andante con moto (4:10)
04. Shadows (Per Jimi Hendrix) (5:30)
05. Nella sala vuota (20:25)
06. La Prima goccia bagna il viso Part 1 (3:54)
07. La Prima goccia bagna il viso Part 2 (4:42)

Musicians:
- Frank Laugelli / bass (Rhodes)
- Maurizio Salvi / piano, organ
- Vittorio De Scalzi / guitar
- Nico Di Palo / guitar, lead vocals
- Gianni Belleno / drums, vocals
Код:
Код:
Exact Audio Copy V1.0 beta 2 from 29. April 2011

Отчёт EAC об извлечении, выполненном 15. января 2012, 16:49

New Trolls / Concerto Grosso Per 1

Дисковод: ATAPI   iHAP122   W   Adapter: 3  ID: 1

Режим чтения                 : Достоверность
Использование точного потока : Да
Отключение кэша аудио        : Да
Использование указателей C2  : Нет

Коррекция смещения при чтении                     : 6
Способность читать области Lead-in и Lead-out     : Нет
Заполнение пропущенных сэмплов тишиной            : Да
Удаление блоков с тишиной в начале и конце        : Нет
При вычислениях CRC использовались нулевые сэмплы : Нет
Интерфейс                                         : Встроенный Win32-интерфейс для Win NT/2000

Выходной формат : Внутренние WAV-операции
Формат сэмплов  : 44.100 Гц; 16 бит; стерео

TOC извлечённого CD

     Трек |   Старт  | Длительность | Начальный сектор | Конечный сектор
    ---------------------------------------------------------------------
       1  |  0:00.00 |    2:18.57   |           0      |      10406
       2  |  2:18.57 |    4:52.25   |       10407      |      32331
       3  |  7:11.07 |    4:11.25   |       32332      |      51181
       4  | 11:22.32 |    5:32.55   |       51182      |      76136
       5  | 16:55.12 |   20:25.13   |       76137      |     168024
       6  | 37:20.25 |    3:54.15   |      168025      |     185589
       7  | 41:14.40 |    4:42.60   |      185590      |     206799

Характеристики диапазона извлечения и сообщения об ошибках

Выбранный диапазон

     Имя файла D:\obraz\New Trolls - Concerto Grosso#1\New Trolls - Concerto Grosso Per 1.wav

     Пиковый уровень 100.0 %
     Скорость извлечения 2.9 X
     Качество диапазона 100.0 %
     CRC теста 3AE8B1E9
     CRC копии 3AE8B1E9
     Копирование... OK

Ошибок не произошло

AccurateRip: сводка

Трек  1  точность не определена (достоверность 1)  [0BDD820F], AccurateRip вернул [01EB06C2]  (AR v2)
Трек  2  точность не определена (достоверность 1)  [AB0F129F], AccurateRip вернул [40FE7316]  (AR v2)
Трек  3  точность не определена (достоверность 1)  [D591D4B3], AccurateRip вернул [96401ECE]  (AR v2)
Трек  4  точность не определена (достоверность 1)  [2B44C3DA], AccurateRip вернул [EA7C705F]  (AR v2)
Трек  5  точность не определена (достоверность 1)  [F89DB478], AccurateRip вернул [3343F65F]  (AR v2)
Трек  6  точность не определена (достоверность 1)  [01B3618E], AccurateRip вернул [C1EA3EB6]  (AR v2)
Трек  7  точность не определена (достоверность 1)  [F7D28D2B], AccurateRip вернул [5434C7A7]  (AR v2)

Ни один трек не прошёл проверки на точность
В вашей базе может быть иной вариант штамповки диска

Конец отчёта

==== Контрольная сумма отчёта 66B3A401932E3305785B0AE3B834B97DFB3FBE2C3BC233621BADF0C6D33EDCC8 ====
Код:
Код:
-----------------------

DON'T MODIFY THIS FILE

-----------------------

PERFORMER: auCDtect Task Manager, ver. 1.6.0 RC1 build 1.6.0.1
Copyright (c) 2008-2010 y-soft. All rights reserved
http:/y-soft.org

ANALYZER: auCDtect: CD records authenticity detector, version 0.8.2
Copyright (c) 2004 Oleg Berngardt. All rights reserved.
Copyright (c) 2004 Alexander Djourik. All rights reserved.

FILE: New Trolls - Concerto Grosso Per 1.flac
  Size: 276974528 Hash: DFD7D9DFFDF5407B2700C1B73114EE9B Accuracy: -m0
  Conclusion: CDDA 100%
  Signature: E1F780EEC4F58D7918342B299AA06499F45FE698
Код:
Код:
REM GENRE "Progressive Rock"
REM DATE 1971
REM DISCID 490AC507
REM COMMENT "ExactAudioCopy v1.0b2"
PERFORMER "New Trolls"
TITLE "Concerto Grosso Per 1"
FILE "New Trolls - Concerto Grosso Per 1.wav" WAVE
  TRACK 01 AUDIO
    TITLE "Allegro"
    PERFORMER "New Trolls"
    INDEX 01 00:00:00
  TRACK 02 AUDIO
    TITLE "Adagio(Shadows)"
    PERFORMER "New Trolls"
    INDEX 00 02:16:32
    INDEX 01 02:18:57
  TRACK 03 AUDIO
    TITLE "Cadanza-Andante Con Moto"
    PERFORMER "New Trolls"
    INDEX 00 07:09:12
    INDEX 01 07:11:07
  TRACK 04 AUDIO
    TITLE "Shadows(Per Jimy Hendrix)"
    PERFORMER "New Trolls"
    INDEX 00 11:20:42
    INDEX 01 11:22:32
  TRACK 05 AUDIO
    TITLE "Nella Sala Vuota"
    PERFORMER "New Trolls"
    INDEX 00 16:52:07
    INDEX 01 16:55:12
  TRACK 06 AUDIO
    TITLE "La Prima Goccia Bagna Il Viso Part 1"
    PERFORMER "New Trolls"
    INDEX 00 37:18:00
    INDEX 01 37:20:25
  TRACK 07 AUDIO
    TITLE "La Prima Goccia Bagna Il Viso Part 2"
    PERFORMER "New Trolls"
    INDEX 01 41:14:40
#777
Concerto Grosso № 2
Год: 1976
Catalog#: KICP 2153
Продолжительность: 00:37:45
Трек лист:
01. 1° tempo: Vivace (4:44)
02. 2° tempo: Andante (Most Dear Lady) (3:41)
03. 3° tempo: Moderato - (Fare You Well Dove) (4:13)
04. Quiet Seas (3:24)
05. Vent'Anni (4:51)
06. Bella Come Mai (4:17)
07. Let It Be (3:19)
08. Le Roi Soleil (5:20)
Bonus:
09. Vento O Cent'Anni (3:46)

Musicians:
- Nico Di Palo / guitar, lead vocals
- Gianni Belleno / drums, vocals
- Vittorio De Scalzi / guitar
- Giorgio D'Adamo / bass
- Ricky Belloni / keyboards
Код:
Код:
Exact Audio Copy V1.0 beta 2 from 29. April 2011

Отчёт EAC об извлечении, выполненном 15. января 2012, 11:11

New Trolls / Concerto Grosso N.2

Дисковод: ATAPI   iHAP122   W   Adapter: 3  ID: 1

Режим чтения                 : Достоверность
Использование точного потока : Да
Отключение кэша аудио        : Да
Использование указателей C2  : Нет

Коррекция смещения при чтении                     : 6
Способность читать области Lead-in и Lead-out     : Нет
Заполнение пропущенных сэмплов тишиной            : Да
Удаление блоков с тишиной в начале и конце        : Нет
При вычислениях CRC использовались нулевые сэмплы : Нет
Интерфейс                                         : Встроенный Win32-интерфейс для Win NT/2000

Выходной формат : Внутренние WAV-операции
Формат сэмплов  : 44.100 Гц; 16 бит; стерео

TOC извлечённого CD

     Трек |   Старт  | Длительность | Начальный сектор | Конечный сектор
    ---------------------------------------------------------------------
       1  |  0:00.00 |    4:43.67   |           0      |      21291
       2  |  4:43.67 |    3:41.10   |       21292      |      37876
       3  |  8:25.02 |    4:16.45   |       37877      |      57121
       4  | 12:41.47 |    3:24.23   |       57122      |      72444
       5  | 16:05.70 |    4:51.50   |       72445      |      94319
       6  | 20:57.45 |    4:17.30   |       94320      |     113624
       7  | 25:15.00 |    3:20.27   |      113625      |     128651
       8  | 28:35.27 |    5:23.08   |      128652      |     152884
       9  | 33:58.35 |    3:46.50   |      152885      |     169884

Характеристики диапазона извлечения и сообщения об ошибках

Выбранный диапазон

     Имя файла D:\obraz\New Trolls - Concerto Grosso#2\New Trolls - Concerto Grosso N.2.wav

     Пиковый уровень 79.3 %
     Скорость извлечения 7.7 X
     Качество диапазона 100.0 %
     CRC теста 004845F5
     CRC копии 004845F5
     Копирование... OK

Ошибок не произошло

AccurateRip: сводка

Трек  1  точность не определена (достоверность 1)  [87692E96], AccurateRip вернул [2B2BAACD]  (AR v2)
Трек  2  точность не определена (достоверность 1)  [DA9E8070], AccurateRip вернул [AF4BE237]  (AR v2)
Трек  3  точность не определена (достоверность 1)  [B974FDB8], AccurateRip вернул [EBF91D07]  (AR v2)
Трек  4  точность не определена (достоверность 1)  [2B7FABD0], AccurateRip вернул [D214A76A]  (AR v2)
Трек  5  точность не определена (достоверность 1)  [047CF76B], AccurateRip вернул [2BFE7AAE]  (AR v2)
Трек  6  точность не определена (достоверность 1)  [B03C3D94], AccurateRip вернул [140D2947]  (AR v2)
Трек  7  точность не определена (достоверность 1)  [4A127A16], AccurateRip вернул [76B35868]  (AR v2)
Трек  8  точность не определена (достоверность 1)  [B682D420], AccurateRip вернул [32C86938]  (AR v2)
Трек  9  точность не определена (достоверность 1)  [BEC0ADD0], AccurateRip вернул [85662FB6]  (AR v2)

Ни один трек не прошёл проверки на точность
В вашей базе может быть иной вариант штамповки диска

Конец отчёта

==== Контрольная сумма отчёта E72F066DB2CFAEC080DF7678D55135E18405B812EF0469924E473448E75581B2 ====
Код:
Код:
-----------------------

DON'T MODIFY THIS FILE

-----------------------

PERFORMER: auCDtect Task Manager, ver. 1.6.0 RC1 build 1.6.0.1
Copyright (c) 2008-2010 y-soft. All rights reserved
http:/y-soft.org

ANALYZER: auCDtect: CD records authenticity detector, version 0.8.2
Copyright (c) 2004 Oleg Berngardt. All rights reserved.
Copyright (c) 2004 Alexander Djourik. All rights reserved.

FILE: New Trolls - Concerto Grosso N.2.flac
  Size: 207549704 Hash: CFC5CA0F49433D0053032E6E147EA516 Accuracy: -m0
  Conclusion: CDDA 99%
  Signature: 84FF2CED2C6D032CB5978D3455B17CC63279CFFA
Код:
Код:
REM GENRE "Progressive Rock"
REM DATE 1976
REM DISCID 7808D909
REM COMMENT "ExactAudioCopy v1.0b2"
PERFORMER "New Trolls"
TITLE "Concerto Grosso N.2"
FILE "New Trolls - Concerto Grosso N.2.wav" WAVE
  TRACK 01 AUDIO
    TITLE "Tempo: Vivace"
    PERFORMER "New Trolls"
    INDEX 01 00:00:00
  TRACK 02 AUDIO
    TITLE "Tempo: Andante (Most Dear Lady)"
    PERFORMER "New Trolls"
    INDEX 00 04:41:37
    INDEX 01 04:43:67
  TRACK 03 AUDIO
    TITLE "Tempo: Moderato (Fare You Well Dove)"
    PERFORMER "New Trolls"
    INDEX 00 08:23:15
    INDEX 01 08:25:02
  TRACK 04 AUDIO
    TITLE "Quiet Seas"
    PERFORMER "New Trolls"
    INDEX 00 12:38:07
    INDEX 01 12:41:47
  TRACK 05 AUDIO
    TITLE "Vent Anni"
    PERFORMER "New Trolls"
    INDEX 00 16:04:37
    INDEX 01 16:05:70
  TRACK 06 AUDIO
    TITLE "Bella Come Mai"
    PERFORMER "New Trolls"
    INDEX 00 20:55:30
    INDEX 01 20:57:45
  TRACK 07 AUDIO
    TITLE "Let It Be Me"
    PERFORMER "New Trolls"
    INDEX 00 25:12:72
    INDEX 01 25:15:00
  TRACK 08 AUDIO
    TITLE "Le Roi Soliel"
    PERFORMER "New Trolls"
    INDEX 00 28:33:10
    INDEX 01 28:35:27
  TRACK 09 AUDIO
    TITLE "Vento O Cent Anni"
    PERFORMER "New Trolls"
    INDEX 00 33:54:55
    INDEX 01 33:58:35
Правила, инструкции, FAQ!!!
Торрент  Добавлен [16 мар 2014, 00:01] Скачать торрент Магнет ссылка
Скачать торрент
[ Размер 21.94 КБ / Просмотров 38 ]

Статус  
 
Размер  489.12 МБ
Приватный: Нет (DHT включён)
.torrent скачан  3
 


     Отправить личное сообщение
   
Страница 1 из 1
Показать сообщения за:  Поле сортировки  
Начать новую тему Ответить на тему


Сейчас этот форум просматривают: нет зарегистрированных пользователей и гости: 0


Вы не можете начинать темы
Вы не можете отвечать на сообщения
Вы не можете редактировать свои сообщения
Вы не можете удалять свои сообщения
Вы не можете добавлять вложения

Перейти:  
cron
cron