Начать новую тему Ответить на тему
Статистика раздачи
Размер: 322.48 МБ | Добавлен: 31 дек 2019, 20:00 | Скачали: 4
Сидеров: 4  [0 байт/сек]    Личеров: 1  [0 байт/сек]
Пред. тема | След. тема 

Автор
Сообщение

СообщениеДобавлено: 31 дек 2019, 20:00 

Ответить с цитатой 

Wind Machine - Road to Freedom
Жанр: New Age
Носитель: CD
Страна-производитель диска (релиза): США
Год издания: 1990
Издатель (лейбл): Silver Wave Records
Номер по каталогу: SD-602
Аудиокодек: FLAC (*.flac)
Тип рипа: tracks+.cue
Продолжительность: 00:49:59
Источник: rogueofmv
Наличие сканов в содержимом раздачи: да
Треклист:
01. Road to Freedom (5:54)
02. Song for Marilynn (4:07)
03. China (4:57)
04. Our Mountains Are the People (3:40)
05. Train of Thought (3:26)
06. Helping Hands (3:06)
07. Coast to Coast (4:15)
08. Tears for Romero (4:28)
09. Rising Sons (4:23)
10. Mourning Dove (4:25)
11. The Meadow Dance (4:26)
12. Roundhill Road (2:52)
Код:
Exact Audio Copy V1.3 from 2. September 2016
EAC extraction logfile from 20. April 2019, 21:02
Wind Machine / Road to Freedom
Used drive  : PLEXTOR DVDR   PX-716A   Adapter: 1  ID: 1
Read mode               : Secure
Utilize accurate stream : Yes
Defeat audio cache      : Yes
Make use of C2 pointers : No
Read offset correction                      : 30
Overread into Lead-In and Lead-Out          : Yes
Fill up missing offset samples with silence : Yes
Delete leading and trailing silent blocks   : No
Null samples used in CRC calculations       : Yes
Used interface                              : Native Win32 interface for Win NT & 2000
Gap handling                                : Appended to previous track
Used output format              : User Defined Encoder
Selected bitrate                : 1024 kBit/s
Quality                         : High
Add ID3 tag                     : No
Command line compressor         : C:\Program Files (x86)\Exact Audio Copy\Flac\flac.exe
Additional command line options : -8 -e -p -V -T "ARTIST=%artist%" -T "TITLE=%title%" -T "ALBUM=%albumtitle%" -T "DATE=%year%" -T "TRACKNUMBER=%tracknr%" -T "GENRE=%genre%" -T "PERFORMER=%albuminterpret%" -T "COMPOSER=%composer%" %haslyrics%--tag-from-file=LYRICS="%lyricsfile%"%haslyrics% -T "ALBUMARTIST=%albumartist%" -T "DISCNUMBER=%cdnumber%" -T "TOTALDISCS=%totalcds%" -T "TOTALTRACKS=%numtracks%" -T "COMMENT=%comment%" %source% -o %dest%
TOC of the extracted CD
     Track |   Start  |  Length  | Start sector | End sector
    ---------------------------------------------------------
        1  |  0:00.00 |  5:54.00 |         0    |    26549
        2  |  5:54.00 |  4:07.07 |     26550    |    45081
        3  | 10:01.07 |  4:57.20 |     45082    |    67376
        4  | 14:58.27 |  3:39.55 |     67377    |    83856
        5  | 18:38.07 |  3:26.00 |     83857    |    99306
        6  | 22:04.07 |  3:05.68 |     99307    |   113249
        7  | 25:10.00 |  4:15.15 |    113250    |   132389
        8  | 29:25.15 |  4:28.25 |    132390    |   152514
        9  | 33:53.40 |  4:23.00 |    152515    |   172239
       10  | 38:16.40 |  4:25.10 |    172240    |   192124
       11  | 42:41.50 |  4:26.05 |    192125    |   212079
       12  | 47:07.55 |  2:52.32 |    212080    |   225011
Track  1
     Filename C:\rips\Wind Machine - Road to Freedom (1991) [FLAC] {SD-602}\01 - Road to Freedom.wav
     Pre-gap length  0:00:02.00
     Peak level 97.8 %
     Extraction speed 9.1 X
     Track quality 100.0 %
     Test CRC CB118469
     Copy CRC CB118469
     Accurately ripped (confidence 10)  [9B1049D0]  (AR v2)
     Copy OK
Track  2
     Filename C:\rips\Wind Machine - Road to Freedom (1991) [FLAC] {SD-602}\02 - Song for Marilynn.wav
     Pre-gap length  0:00:02.06
     Peak level 87.1 %
     Extraction speed 9.9 X
     Track quality 100.0 %
     Test CRC FF78411D
     Copy CRC FF78411D
     Accurately ripped (confidence 10)  [5696E647]  (AR v2)
     Copy OK
Track  3
     Filename C:\rips\Wind Machine - Road to Freedom (1991) [FLAC] {SD-602}\03 - China.wav
     Pre-gap length  0:00:01.56
     Peak level 77.6 %
     Extraction speed 10.8 X
     Track quality 100.0 %
     Test CRC 9A3424A8
     Copy CRC 9A3424A8
     Accurately ripped (confidence 10)  [E486748D]  (AR v2)
     Copy OK
Track  4
     Filename C:\rips\Wind Machine - Road to Freedom (1991) [FLAC] {SD-602}\04 - Our Mountains Are the People.wav
     Pre-gap length  0:00:01.62
     Peak level 96.5 %
     Extraction speed 10.1 X
     Track quality 99.9 %
     Test CRC F5FF0834
     Copy CRC F5FF0834
     Accurately ripped (confidence 10)  [7E1037C2]  (AR v2)
     Copy OK
Track  5
     Filename C:\rips\Wind Machine - Road to Freedom (1991) [FLAC] {SD-602}\05 - Train of Thought.wav
     Pre-gap length  0:00:02.16
     Peak level 75.8 %
     Extraction speed 12.0 X
     Track quality 100.0 %
     Test CRC F5A1D3EE
     Copy CRC F5A1D3EE
     Accurately ripped (confidence 10)  [1B030C7A]  (AR v2)
     Copy OK
Track  6
     Filename C:\rips\Wind Machine - Road to Freedom (1991) [FLAC] {SD-602}\06 - Helping Hands.wav
     Pre-gap length  0:00:02.33
     Peak level 72.6 %
     Extraction speed 10.6 X
     Track quality 99.9 %
     Test CRC D9CFBD56
     Copy CRC D9CFBD56
     Accurately ripped (confidence 10)  [42DD3D8F]  (AR v2)
     Copy OK
Track  7
     Filename C:\rips\Wind Machine - Road to Freedom (1991) [FLAC] {SD-602}\07 - Coast to Coast.wav
     Pre-gap length  0:00:01.30
     Peak level 92.1 %
     Extraction speed 11.8 X
     Track quality 100.0 %
     Test CRC C4E1ABB8
     Copy CRC C4E1ABB8
     Accurately ripped (confidence 10)  [D37C48EF]  (AR v2)
     Copy OK
Track  8
     Filename C:\rips\Wind Machine - Road to Freedom (1991) [FLAC] {SD-602}\08 - Tears for Romero.wav
     Pre-gap length  0:00:01.06
     Peak level 86.4 %
     Extraction speed 13.7 X
     Track quality 100.0 %
     Test CRC EE49ADA7
     Copy CRC EE49ADA7
     Accurately ripped (confidence 10)  [B92349EE]  (AR v2)
     Copy OK
Track  9
     Filename C:\rips\Wind Machine - Road to Freedom (1991) [FLAC] {SD-602}\09 - Rising Sons.wav
     Pre-gap length  0:00:01.26
     Peak level 79.2 %
     Extraction speed 13.5 X
     Track quality 100.0 %
     Test CRC D462D49B
     Copy CRC D462D49B
     Accurately ripped (confidence 10)  [15714415]  (AR v2)
     Copy OK
Track 10
     Filename C:\rips\Wind Machine - Road to Freedom (1991) [FLAC] {SD-602}\10 - Mourning Dove.wav
     Pre-gap length  0:00:01.10
     Peak level 78.2 %
     Extraction speed 14.8 X
     Track quality 100.0 %
     Test CRC 9893A932
     Copy CRC 9893A932
     Accurately ripped (confidence 10)  [3132B57F]  (AR v2)
     Copy OK
Track 11
     Filename C:\rips\Wind Machine - Road to Freedom (1991) [FLAC] {SD-602}\11 - The Meadow Dance.wav
     Pre-gap length  0:00:01.93
     Peak level 94.7 %
     Extraction speed 14.8 X
     Track quality 100.0 %
     Test CRC 1B7CE027
     Copy CRC 1B7CE027
     Accurately ripped (confidence 10)  [352EE793]  (AR v2)
     Copy OK
Track 12
     Filename C:\rips\Wind Machine - Road to Freedom (1991) [FLAC] {SD-602}\12 - Roundhill Road.wav
     Pre-gap length  0:00:02.20
     Peak level 74.2 %
     Extraction speed 15.9 X
     Track quality 100.0 %
     Test CRC 0CD833D7
     Copy CRC 0CD833D7
     Accurately ripped (confidence 10)  [58D4537E]  (AR v2)
     Copy OK
All tracks accurately ripped
No errors occurred
End of status report
---- CUETools DB Plugin V2.1.6
[CTDB TOCID: fWoCd9mmQgZMknaBXDoR8gv0ig0-] found
Submit result: fWoCd9mmQgZMknaBXDoR8gv0ig0- has been confirmed
Track | CTDB Status
  1   | (13/13) Accurately ripped
  2   | (13/13) Accurately ripped
  3   | (13/13) Accurately ripped
  4   | (13/13) Accurately ripped
  5   | (13/13) Accurately ripped
  6   | (13/13) Accurately ripped
  7   | (13/13) Accurately ripped
  8   | (13/13) Accurately ripped
  9   | (13/13) Accurately ripped
 10   | (13/13) Accurately ripped
 11   | (13/13) Accurately ripped
 12   | (13/13) Accurately ripped
==== Log checksum 23088FACD7B5D96EB61C859FEA530CBD066CA4A6FE7D0DA850E66BB8DEF7BC6E ====
Код:
REM GENRE "New Age"
REM DATE 1990
REM DISCID 940BB80C
REM COMMENT "ExactAudioCopy v1.3"
PERFORMER "Wind Machine"
TITLE "Road to Freedom"
FILE "01 - Road to Freedom.wav" WAVE
  TRACK 01 AUDIO
    TITLE "Road to Freedom"
    PERFORMER "Wind Machine"
    INDEX 01 00:00:00
  TRACK 02 AUDIO
    TITLE "Song for Marilynn"
    PERFORMER "Wind Machine"
    INDEX 00 05:51:70
FILE "02 - Song for Marilynn.wav" WAVE
    INDEX 01 00:00:00
  TRACK 03 AUDIO
    TITLE "China"
    PERFORMER "Wind Machine"
    INDEX 00 04:05:40
FILE "03 - China.wav" WAVE
    INDEX 01 00:00:00
  TRACK 04 AUDIO
    TITLE "Our Mountains Are the People"
    PERFORMER "Wind Machine"
    INDEX 00 04:55:48
FILE "04 - Our Mountains Are the People.wav" WAVE
    INDEX 01 00:00:00
  TRACK 05 AUDIO
    TITLE "Train of Thought"
    PERFORMER "Wind Machine"
    INDEX 00 03:37:43
FILE "05 - Train of Thought.wav" WAVE
    INDEX 01 00:00:00
  TRACK 06 AUDIO
    TITLE "Helping Hands"
    PERFORMER "Wind Machine"
    INDEX 00 03:23:50
FILE "06 - Helping Hands.wav" WAVE
    INDEX 01 00:00:00
  TRACK 07 AUDIO
    TITLE "Coast to Coast"
    PERFORMER "Wind Machine"
    INDEX 00 03:04:45
FILE "07 - Coast to Coast.wav" WAVE
    INDEX 01 00:00:00
  TRACK 08 AUDIO
    TITLE "Tears for Romero"
    PERFORMER "Wind Machine"
    INDEX 00 04:14:10
FILE "08 - Tears for Romero.wav" WAVE
    INDEX 01 00:00:00
  TRACK 09 AUDIO
    TITLE "Rising Sons"
    PERFORMER "Wind Machine"
    INDEX 00 04:27:05
FILE "09 - Rising Sons.wav" WAVE
    INDEX 01 00:00:00
  TRACK 10 AUDIO
    TITLE "Mourning Dove"
    PERFORMER "Wind Machine"
    INDEX 00 04:21:67
FILE "10 - Mourning Dove.wav" WAVE
    INDEX 01 00:00:00
  TRACK 11 AUDIO
    TITLE "The Meadow Dance"
    PERFORMER "Wind Machine"
    INDEX 00 04:23:15
FILE "11 - The Meadow Dance.wav" WAVE
    INDEX 01 00:00:00
  TRACK 12 AUDIO
    TITLE "Roundhill Road"
    PERFORMER "Wind Machine"
    INDEX 00 04:23:65
FILE "12 - Roundhill Road.wav" WAVE
    INDEX 01 00:00:00
Код:
[CUETools log; Date: 27.12.2019 16:00:39; Version: 2.1.6]
[CTDB TOCID: fWoCd9mmQgZMknaBXDoR8gv0ig0-] found.
Track | CTDB Status
  1   | (18/18) Accurately ripped
  2   | (18/18) Accurately ripped
  3   | (18/18) Accurately ripped
  4   | (18/18) Accurately ripped
  5   | (18/18) Accurately ripped
  6   | (18/18) Accurately ripped
  7   | (18/18) Accurately ripped
  8   | (18/18) Accurately ripped
  9   | (18/18) Accurately ripped
 10   | (18/18) Accurately ripped
 11   | (18/18) Accurately ripped
 12   | (18/18) Accurately ripped
[AccurateRip ID: 00173879-00d5acb2-940bb80c] found.
Track   [  CRC   |   V2   ] Status
 01     [373a4e0e|9b1049d0] (04+12/16) Accurately ripped
 02     [72c4ed1c|5696e647] (04+12/16) Accurately ripped
 03     [891403a5|e486748d] (04+12/16) Accurately ripped
 04     [018a3ce6|7e1037c2] (04+12/16) Accurately ripped
 05     [20077dd8|1b030c7a] (04+12/16) Accurately ripped
 06     [9232ac65|42dd3d8f] (04+12/16) Accurately ripped
 07     [2c083339|d37c48ef] (04+12/16) Accurately ripped
 08     [60d5c435|b92349ee] (04+12/16) Accurately ripped
 09     [bc118e05|15714415] (04+12/16) Accurately ripped
 10     [830633d0|3132b57f] (04+12/16) Accurately ripped
 11     [d77575ea|352ee793] (03+12/15) Accurately ripped
 12     [d17c89ba|58d4537e] (02+12/14) Accurately ripped
Track Peak [ CRC32  ] [W/O NULL] [  LOG   ]
 --   97,8 [75596A45] [DF94A708]
 01   97,8 [CB118469] [47D445AC]   CRC32
 02   87,1 [FF78411D] [C106EDFD]   CRC32
 03   77,6 [9A3424A8] [84ACBADD]   CRC32
 04   96,5 [F5FF0834] [041E671E]   CRC32
 05   75,8 [F5A1D3EE] [22C398F7]   CRC32
 06   72,6 [D9CFBD56] [3C0E007F]   CRC32
 07   92,1 [C4E1ABB8] [97A12D83]   CRC32
 08   86,4 [EE49ADA7] [81BF76BF]   CRC32
 09   79,2 [D462D49B] [B2F71E2B]   CRC32
 10   78,2 [9893A932] [82B2177A]   CRC32
 11   94,7 [1B7CE027] [E4C06FE0]   CRC32
 12   74,2 [0CD833D7] [CE23972C]   CRC32
Road to Freedom is the fourth Wind Machine release, following the surprise hit, Rain Maiden. The group remains intact, with two dynamite guitarists sharing the leads in bringing Steve Mesple's compositions to their fullest form yet. The twelve tunes range from sweet, serene songs of love to blistering acoustic frenzies. Several tunes are tributes to various freedom fighters, both near and far, and the fervent feelings of the universal struggle for peace and justice are translated well through the music.
Правила, инструкции, FAQ!!!
Торрент  Добавлен [31 дек 2019, 20:00] Скачать торрент Магнет ссылка
Скачать торрент
[ Размер 14.24 КБ / Просмотров 35 ]

Статус
Проверен 
 
Размер  322.48 МБ
Приватный: Нет (DHT включён)
.torrent скачан  4
 


     Отправить личное сообщение
   
Страница 1 из 1
Показать сообщения за:  Поле сортировки  
Начать новую тему Ответить на тему


Сейчас этот форум просматривают: нет зарегистрированных пользователей и гости: 0


Вы не можете начинать темы
Вы не можете отвечать на сообщения
Вы не можете редактировать свои сообщения
Вы не можете удалять свои сообщения
Вы не можете добавлять вложения

Перейти:  
cron