Начать новую тему Ответить на тему
Статистика раздачи
Размер: 439.4 МБ | Добавлен: 23 фев 2018, 23:46 | Скачали: 8
Сидеров: 10  [0 байт/сек]    Личеров: 3  [0 байт/сек]
Пред. тема | След. тема 

Автор
Сообщение

СообщениеДобавлено: 23 фев 2018, 23:46 

Ответить с цитатой 

Natasha Barnes / Real
Формат записи/Источник записи: [TR24][OF]
Наличие водяных знаков: Нет
Год издания/переиздания диска: 2018
Жанр: Pop
Издатель (лейбл): Masterworks
Продолжительность: 00:37:39
Наличие сканов в содержимом раздачи: Буклет PDF
Источник (релизер): 7digital
Контейнер: FLAC (*.flac)
Тип рипа: tracks
Разрядность: 24/44,1
Формат: PCM
Количество каналов: 2.0
Треклист:
01. You Don't Mean It
02. Sun, Moon and Stars
03. Supermodel
04. Dollar Signs
05. Home
06. I'm Controlled By Your Love
07. If It's for Real
08. The Only Exception
09. If You Only Knew
10. People
Код:
foobar2000 1.1.10 / Dynamic Range Meter 1.1.1
log date: 2018-02-16 11:48:21
--------------------------------------------------------------------------------
Analyzed: Natasha Barnes / Real
--------------------------------------------------------------------------------
DR         Peak         RMS     Duration Track
--------------------------------------------------------------------------------
DR7       -0.30 dB    -7.75 dB      3:39 ?-You Don't Mean It
DR6       -0.48 dB    -8.36 dB      3:50 ?-Sun, Moon and Stars
DR6       -0.40 dB    -8.41 dB      3:50 ?-Supermodel
DR6       -0.32 dB    -8.52 dB      3:41 ?-Dollar Signs
DR6       -0.44 dB    -8.42 dB      3:59 ?-Home
DR6       -0.42 dB    -6.72 dB      3:23 ?-I'm Controlled By Your Love
DR6       -0.30 dB    -8.02 dB      3:39 ?-If It's for Real
DR5       -0.44 dB    -7.13 dB      4:21 ?-The Only Exception
DR4       -0.38 dB    -7.14 dB      3:41 ?-If You Only Knew
DR7       -0.49 dB   -10.38 dB      3:36 ?-People
--------------------------------------------------------------------------------
Number of tracks:  10
Official DR value: DR6
Samplerate:        44100 Hz
Channels:          2
Bits per sample:   24
Bitrate:           1538 kbps
Codec:             FLAC
================================================================================
Natasha first came to the public’s attention last summer when she stepped into the role of Fanny Brice for the West End run of Funny Girl at the Savoy Theatre.
A 5 star critical wonder – the Daily Telegraph calling her “a sensation in her own right... She has a charisma and twinkling mischief that’s irresistible”, and from the Daily Mail, “An exceptional lead performance”.
‘Supermodel’ is the first single from Natasha’s debut album 'Real' – a collection of original songs to showcase her uniquely expressive voice, coupled with some unexpected classics inspired by Northern soul and her love of trawling through vintage record stores.

Раздаю до первых 5-ти скачавших, на раздачи не возвращаюсь...

Правила, инструкции, FAQ!!!
Торрент  Добавлен [23 фев 2018, 23:46] Скачать торрент Магнет ссылка
Скачать торрент
[ Размер 18.25 КБ / Просмотров 146 ]

Статус
Проверен 
 
Размер  439.4 МБ
Приватный: Нет (DHT включён)
.torrent скачан  8
 


     Отправить личное сообщение
   
Страница 1 из 1
Показать сообщения за:  Поле сортировки  
Начать новую тему Ответить на тему


Сейчас этот форум просматривают: нет зарегистрированных пользователей и гости: 0


Вы не можете начинать темы
Вы не можете отвечать на сообщения
Вы не можете редактировать свои сообщения
Вы не можете удалять свои сообщения
Вы не можете добавлять вложения

Перейти:  
cron