Начать новую тему Ответить на тему
Статистика раздачи
Размер: 580.83 МБ | Добавлен: 01 апр 2019, 19:21 | Скачали: 15
Сидеров: 19  [0 байт/сек]    Личеров: 6  [0 байт/сек]
Пред. тема | След. тема 

Автор
Сообщение

СообщениеДобавлено: 01 апр 2019, 19:21 

Ответить с цитатой 

Mylène Farmer / Désobéissance
Формат записи/Источник записи: [TR24][OF]
Наличие водяных знаков: Нет
Издание: Deluxe edition
Год издания/переиздания диска: 2018
Жанр: Pop
Издатель (лейбл): Stuffed Monkey
Продолжительность: 00:50:18
Наличие сканов в содержимом раздачи: Только обложка альбома
Треклист:
01. Rolling Stone (03:45)
02. Sentimentale (04:16)
03. Désobéissance (03:59)
04. N'oublie Pas (With LP) (03:39)
05. Histoires De Fesses (01:57)
06. Get Up Girl (03:37)
07. Prière (03:34)
08. Au Lecteur (03:15)
09. Des Larmes (03:48)
10. Parler D'avenir (03:31)
11. On A Besoin D'y Croire (03:48)
12. Retenir L'eau (04:13)
13. Untitled (03:43)
14. Histoires De Fesses (Extended Version) (03:04)
Контейнер: FLAC (*.flac)
Тип рипа: tracks
Разрядность: 24/44,1
Формат: PCM
Количество каналов: 2.0
Код:
foobar2000 1.3.16 / Dynamic Range Meter 1.1.1
log date: 2018-11-30 04:14:05
--------------------------------------------------------------------------------
Analyzed: Mylène Farmer feat. LP / Désobéissance (Edition deluxe) (1)
          Mylène Farmer / Désobéissance (Edition deluxe) (2-14)
--------------------------------------------------------------------------------
DR         Peak         RMS     Duration Track
--------------------------------------------------------------------------------
DR4        0.00 dB    -6.46 dB      3:40 04-N'oublie pas
DR6        0.00 dB    -8.01 dB      3:46 01-Rolling Stone
DR4        0.00 dB    -6.37 dB      4:16 02-Sentimentale
DR5        0.00 dB    -6.03 dB      4:00 03-Désobéissance
DR5        0.00 dB    -6.44 dB      1:57 05-Histoires de fesses
DR5        0.00 dB    -7.09 dB      3:37 06-Get up Girl
DR6        0.00 dB    -8.33 dB      3:35 07-Prière
DR8        0.00 dB   -10.39 dB      3:15 08-Au lecteur
DR6        0.00 dB    -6.88 dB      3:49 09-Des larmes
DR5       -0.07 dB    -7.01 dB      3:32 10-Parler d'avenir
DR5        0.00 dB    -6.97 dB      3:49 11-On a besoin d'y croire
DR6       -0.16 dB    -8.52 dB      4:13 12-Retenir l'eau
DR6       -0.09 dB    -8.00 dB      3:44 13-Untitled
DR5        0.00 dB    -6.57 dB      3:04 14-Histoires de fesses (Extended Version)
--------------------------------------------------------------------------------
Number of tracks:  14
Official DR value: DR5
Samplerate:        44100 Hz
Channels:          2
Bits per sample:   24
Bitrate:           1614 kbps
Codec:             FLAC
================================================================================
Источник (релизер): qobuz
Правила, инструкции, FAQ!!!
Торрент  Добавлен [01 апр 2019, 19:21] Скачать торрент Магнет ссылка
Скачать торрент
[ Размер 12.64 КБ / Просмотров 60 ]

Статус
Проверен 
 
Размер  580.83 МБ
Приватный: Нет (DHT включён)
.torrent скачан  15
 


     Отправить личное сообщение
   
Страница 1 из 1
Показать сообщения за:  Поле сортировки  
Начать новую тему Ответить на тему


Сейчас этот форум просматривают: нет зарегистрированных пользователей и гости: 0


Вы не можете начинать темы
Вы не можете отвечать на сообщения
Вы не можете редактировать свои сообщения
Вы не можете удалять свои сообщения
Вы не можете добавлять вложения

Перейти:  
cron
cron