Начать новую тему Ответить на тему
Статистика раздачи
Размер: 317.85 МБ | Добавлен: 16 мар 2014, 00:52 | Скачали: 8
Сидеров: 5  [0 байт/сек]    Личеров: 2  [0 байт/сек]
Пред. тема | След. тема 

Автор
Сообщение

СообщениеДобавлено: 16 мар 2014, 00:52 

Ответить с цитатой 

My Darkest Days - Sick and Twisted Affair (2012)

Год: 2012
Жанр: Alternative Rock
Страна: Канада
Продолжительность: 00:43:02

Кодек: FLAC
Битрейт: Lossless

Треклист:
01. Sick and Twisted Affair (3:39)
02. Save Yourself (3:41)
03. Casual Sex (3:14)
04. Stutter (2:43)
05. Nature of the Beast (3:01)
06. Perfect (3:49)
07. Again (3:36)
08. Gone (3:31)
09. Love Crime (2:59)
10. Rolling Stoned (Bonus Track) (3:02)
11. Casual Sex (Rock Mix) (3:17)
12. Like Nobody Else (Mountain View Remix) (3:38)
13. Every Lie (Acoustic) (2:54)
#777Описание:
My Darkest Days — канадская рок-группа из Торонто. Были замечены Чедом Крюгером, который пригласил их к сотрудничеству с компанией 604 Records. В июне 2010 года группа отправилась в тур с Sick Puppies, Янус, и It’s Alive, сняли клип к песне «Porn Star Dancing» в Лас-Вегасе, выпущенной 21 июня 2010 года. 4 августа 2010 года видео было шестьдесят седьмым на ITunes в списке 100 самых загруженных видео по всему миру, сингл был четвертым в списке наиболее часто скачиваемых рок-песен в Канаде.

Состав:
Matt Walst – вокал, гитара
Sal Costa – гитара, вокал
Brendan McMillan – бас
Doug Oliver – ударные
Reid Henry – клавишные

Код:
Код:
Exact Audio Copy V1.0 beta 3 from 29. August 2011

EAC extraction logfile from 26. March 2012, 20:32

My Darkest Days / Sick and Twisted Affair

Used drive  : TSSTcorpCDDVDW SH-S222A   Adapter: 0  ID: 1

Read mode               : Secure
Utilize accurate stream : Yes
Defeat audio cache      : Yes
Make use of C2 pointers : No

Read offset correction                      : 6
Overread into Lead-In and Lead-Out          : No
Fill up missing offset samples with silence : Yes
Delete leading and trailing silent blocks   : No
Null samples used in CRC calculations       : Yes
Used interface                              : Native Win32 interface for Win NT & 2000
Gap handling                                : Appended to previous track

Used output format              : User Defined Encoder
Selected bitrate                : 128 kBit/s
Quality                         : High
Add ID3 tag                     : No
Command line compressor         : C:\Program Files (x86)\Exact Audio Copy\Flac\flac.exe
Additional command line options : -8 -V -T "ARTIST=%artist%" -T "TITLE=%title%" -T "ALBUM=%albumtitle%" -T "DATE=%year%" -T "TRACKNUMBER=%tracknr%" -T "GENRE=%genre%" -T "PERFORMER=%albuminterpret%" -T "COMPOSER=%composer%" %haslyrics%--tag-from-file=LYRICS="%lyricsfile%"%haslyrics% -T "ALBUMARTIST=%albumartist%" -T "ALBUM ARTIST=%albumartist%" -T "DISCNUMBER=%cdnumber%" -T "TOTALDISCS=%totalcds%" -T "TOTALTRACKS=%numtracks%" -T "COMMENT=EAC V1.0 beta 2, Secure Mode, Test & Copy, AccurateRip, FLAC -8" %source% -o %dest%

TOC of the extracted CD

     Track |   Start  |  Length  | Start sector | End sector
    ---------------------------------------------------------
        1  |  0:00.00 |  3:38.41 |         0    |    16390
        2  |  3:38.41 |  3:41.12 |     16391    |    32977
        3  |  7:19.53 |  3:13.43 |     32978    |    47495
        4  | 10:33.21 |  2:43.24 |     47496    |    59744
        5  | 13:16.45 |  3:00.70 |     59745    |    73314
        6  | 16:17.40 |  3:48.49 |     73315    |    90463
        7  | 20:06.14 |  3:36.19 |     90464    |   106682
        8  | 23:42.33 |  3:30.43 |    106683    |   122475
        9  | 27:13.01 |  2:58.42 |    122476    |   135867
       10  | 30:11.43 |  3:02.23 |    135868    |   149540
       11  | 33:13.66 |  3:16.70 |    149541    |   164310
       12  | 36:30.61 |  3:38.22 |    164311    |   180682
       13  | 40:09.08 |  2:53.61 |    180683    |   193718

Track  1

     Filename T:\Uploads\My Darkest Days\Sick and Twisted Affair\My Darkest Days - 01 - Sick and Twisted Affair.wav

     Pre-gap length  0:00:02.00

     Peak level 95.8 %
     Extraction speed 4.9 X
     Track quality 100.0 %
     Test CRC 814F46A9
     Copy CRC 814F46A9
     Track not present in AccurateRip database
     Copy OK

Track  2

     Filename T:\Uploads\My Darkest Days\Sick and Twisted Affair\My Darkest Days - 02 - Save Yourself.wav

     Peak level 94.1 %
     Extraction speed 5.1 X
     Track quality 100.0 %
     Test CRC 2F98E766
     Copy CRC 2F98E766
     Track not present in AccurateRip database
     Copy OK

Track  3

     Filename T:\Uploads\My Darkest Days\Sick and Twisted Affair\My Darkest Days - 03 - Casual Sex.wav

     Peak level 96.5 %
     Extraction speed 5.4 X
     Track quality 100.0 %
     Test CRC C0336660
     Copy CRC C0336660
     Track not present in AccurateRip database
     Copy OK

Track  4

     Filename T:\Uploads\My Darkest Days\Sick and Twisted Affair\My Darkest Days - 04 - Stutter.wav

     Peak level 96.5 %
     Extraction speed 4.1 X
     Track quality 99.9 %
     Test CRC 851AE1B9
     Copy CRC 851AE1B9
     Track not present in AccurateRip database
     Copy OK

Track  5

     Filename T:\Uploads\My Darkest Days\Sick and Twisted Affair\My Darkest Days - 05 - Nature of the Beast.wav

     Peak level 96.5 %
     Extraction speed 4.5 X
     Track quality 99.9 %
     Test CRC 58D7356E
     Copy CRC 58D7356E
     Track not present in AccurateRip database
     Copy OK

Track  6

     Filename T:\Uploads\My Darkest Days\Sick and Twisted Affair\My Darkest Days - 06 - Perfect.wav

     Peak level 96.5 %
     Extraction speed 6.3 X
     Track quality 100.0 %
     Test CRC 46B06DE5
     Copy CRC 46B06DE5
     Track not present in AccurateRip database
     Copy OK

Track  7

     Filename T:\Uploads\My Darkest Days\Sick and Twisted Affair\My Darkest Days - 07 - Again.wav

     Peak level 96.1 %
     Extraction speed 6.6 X
     Track quality 100.0 %
     Test CRC F4163696
     Copy CRC F4163696
     Track not present in AccurateRip database
     Copy OK

Track  8

     Filename T:\Uploads\My Darkest Days\Sick and Twisted Affair\My Darkest Days - 08 - Gone.wav

     Peak level 92.4 %
     Extraction speed 6.9 X
     Track quality 100.0 %
     Test CRC 07060D70
     Copy CRC 07060D70
     Track not present in AccurateRip database
     Copy OK

Track  9

     Filename T:\Uploads\My Darkest Days\Sick and Twisted Affair\My Darkest Days - 09 - Love Crime.wav

     Peak level 96.5 %
     Extraction speed 6.9 X
     Track quality 100.0 %
     Test CRC 81F80268
     Copy CRC 81F80268
     Track not present in AccurateRip database
     Copy OK

Track 10

     Filename T:\Uploads\My Darkest Days\Sick and Twisted Affair\My Darkest Days - 10 - Rolling Stoned (Bonus Track).wav

     Peak level 90.1 %
     Extraction speed 7.2 X
     Track quality 100.0 %
     Test CRC 2512C15C
     Copy CRC 2512C15C
     Track not present in AccurateRip database
     Copy OK

Track 11

     Filename T:\Uploads\My Darkest Days\Sick and Twisted Affair\My Darkest Days - 11 - Casual Sex (Rock Mix).wav

     Peak level 96.5 %
     Extraction speed 7.4 X
     Track quality 100.0 %
     Test CRC FCCC1592
     Copy CRC FCCC1592
     Track not present in AccurateRip database
     Copy OK

Track 12

     Filename T:\Uploads\My Darkest Days\Sick and Twisted Affair\My Darkest Days - 12 - Like Nobody Else (Mountain View Remix).wav

     Peak level 96.1 %
     Extraction speed 7.7 X
     Track quality 100.0 %
     Test CRC 545366D0
     Copy CRC 545366D0
     Track not present in AccurateRip database
     Copy OK

Track 13

     Filename T:\Uploads\My Darkest Days\Sick and Twisted Affair\My Darkest Days - 13 - Every Lie (Acoustic).wav

     Peak level 90.2 %
     Extraction speed 7.6 X
     Track quality 100.0 %
     Test CRC 9AAE5C04
     Copy CRC 9AAE5C04
     Track not present in AccurateRip database
     Copy OK

None of the tracks are present in the AccurateRip database

No errors occurred

End of status report

==== Log checksum 236B0EDD6D047E9B2D9F39C1D8581D2CB50D415E5164FE8F406F42F2E5E015AA ====
Код:
Код:
-----------------------

DON'T MODIFY THIS FILE

-----------------------

PERFORMER: auCDtect Task Manager, ver. 1.5.1RC4 build 1.5.1.5
Copyright (c) 2008-2010 y-soft. All rights reserved
http:/y-soft.org

ANALYZER: auCDtect: CD records authenticity detector, version 0.8.2
Copyright (c) 2004 Oleg Berngardt. All rights reserved.
Copyright (c) 2004 Alexander Djourik. All rights reserved.

FILE: My Darkest Days - 13 - Every Lie (Acoustic).flac
  Size: 19108011 Hash: C4F6771F9CC77AE152F51A6144C24EDE Accuracy: -m0
  Conclusion: CDDA 92%
  Signature: 5BC133684FC5B8878209B07FBFEF4C49C09437A3
FILE: My Darkest Days - 12 - Like Nobody Else (Mountain View Remix).flac
  Size: 27302997 Hash: 7F271CEA51DED92D4BBAD1AEF96F0BBE Accuracy: -m0
  Conclusion: CDDA 100%
  Signature: FEFE42A1E2086662CA0955E5572AF8DC21D88A2B
FILE: My Darkest Days - 11 - Casual Sex (Rock Mix).flac
  Size: 25390940 Hash: E73B4A2B66729C847D5AA364A2453B87 Accuracy: -m0
  Conclusion: CDDA 100%
  Signature: F4C787A80158D195B9097106CABC0C2F8AACB4DA
FILE: My Darkest Days - 10 - Rolling Stoned (Bonus Track).flac
  Size: 24156607 Hash: D06E71C18E30A8D8192E60913F60AFC2 Accuracy: -m0
  Conclusion: CDDA 99%
  Signature: BD3DC0610D30F046EDF7E44330D5914CEC44C051
FILE: My Darkest Days - 09 - Love Crime.flac
  Size: 24139461 Hash: 4FEB7A7F77D678A38E42BBE1511BA783 Accuracy: -m0
  Conclusion: CDDA 100%
  Signature: CB22F8B9F87975D4F66B1C72FE10B268998AA5E5
FILE: My Darkest Days - 08 - Gone.flac
  Size: 27010440 Hash: 3387A1FA0E7E88975BEE70EAB292291C Accuracy: -m0
  Conclusion: CDDA 100%
  Signature: CF09127CE749CBB12BBBFCEA329CBFBECF4030CD
FILE: My Darkest Days - 07 - Again.flac
  Size: 29819594 Hash: F91977BF3A7A606CEC6A994A37197889 Accuracy: -m0
  Conclusion: CDDA 100%
  Signature: FDE4579A2FA5B1EA1F4735AA137581D0FAE6B6F7
FILE: My Darkest Days - 06 - Perfect.flac
  Size: 29186902 Hash: 9B732428C6D7E7B78FD4591C38C40C51 Accuracy: -m0
  Conclusion: CDDA 99%
  Signature: 401EB3B8BFE5834D826A1AD6E0AAEDC9FDA7DA3F
FILE: My Darkest Days - 05 - Nature of the Beast.flac
  Size: 23788753 Hash: AB736EB70B8E43803910935AD37BD96C Accuracy: -m0
  Conclusion: CDDA 100%
  Signature: A52B1753748A3521291893AFFA1A02717DC1791F
FILE: My Darkest Days - 04 - Stutter.flac
  Size: 21231608 Hash: 33A78CCF53CE4584C835AE759E252F3A Accuracy: -m0
  Conclusion: CDDA 100%
  Signature: F0371DAB75A5841518320F36F1E6D485E8170A20
FILE: My Darkest Days - 03 - Casual Sex.flac
  Size: 25500125 Hash: E7E972925802AA2FD1584D00D70ED76F Accuracy: -m0
  Conclusion: CDDA 100%
  Signature: DCCB12EC9694CA63448CB42CDEC01716D0443C9A
FILE: My Darkest Days - 02 - Save Yourself.flac
  Size: 27638667 Hash: 350393B744532DB5EE2AF6043E489873 Accuracy: -m0
  Conclusion: CDDA 100%
  Signature: 828A30E396DC5F8A0165FE6C8F9D8B8AA8A32889
FILE: My Darkest Days - 01 - Sick and Twisted Affair.flac
  Size: 28738857 Hash: F34C2955A4F6A9875356091B383E99DD Accuracy: -m0
  Conclusion: CDDA 100%
  Signature: 704E181413F4C98FC7800B4D9F3F521463FFA367
Правила, инструкции, FAQ!!!
Торрент  Добавлен [16 мар 2014, 00:52] Скачать торрент Магнет ссылка
Скачать торрент
[ Размер 14.32 КБ / Просмотров 98 ]

Статус  
 
Размер  317.85 МБ
Приватный: Нет (DHT включён)
.torrent скачан  8
 


     Отправить личное сообщение
   
Страница 1 из 1
Показать сообщения за:  Поле сортировки  
Начать новую тему Ответить на тему


Сейчас этот форум просматривают: нет зарегистрированных пользователей и гости: 0


Вы не можете начинать темы
Вы не можете отвечать на сообщения
Вы не можете редактировать свои сообщения
Вы не можете удалять свои сообщения
Вы не можете добавлять вложения

Перейти:  
cron
cron