Начать новую тему Ответить на тему
Статистика раздачи
Размер: 372.48 МБ | Добавлен: 29 фев 2020, 00:27 | Скачали: 0
Сидеров: 31  [0 байт/сек]    Личеров: 10  [0 байт/сек]
Пред. тема | След. тема 

Автор
Сообщение

СообщениеДобавлено: 29 фев 2020, 00:27 

Ответить с цитатой 


Mr & Mrs Cello


Crossover Three



• Формат записи | Источник записи: [TR24][OF]
• Наличие водяных знаков: Нет
• Год издания релиза: 2020
• Жанр: Pop | Classical
• Продолжительность: 00:22:40
• Источник: internet
• WEB релиз: ссылка
• Контейнер: FLAC (*.flac)
• Тип рипа: tracks
• Разрядность: 24/96
• Формат: WAV (flac.ape.wv)
• Количество каналов: 2.0
• Наличие сканов: front
Tracklist:
01 - Someone You Loved (Arr. For Two Cellos) (00:03:27)
02 - Fragile (Arr. For Two Cellos) (00:03:40)
03 - Love Is a Losing Game (Arr. For Two Cellos) (00:03:33)
04 - Writing's on the Wall (Arr. For Two Cellos) (00:04:11)
05 - Shallow (Arr. For Two Cellos) (00:03:27)
06 - Bailando (Arr. For Two Cellos) (00:04:18)


Код:
foobar2000 1.4.2 / Dynamic Range Meter 1.1.1
log date: 2020-02-21 21:42:33
--------------------------------------------------------------------------------
Analyzed: Mr & Mrs Cello / Crossover Three
--------------------------------------------------------------------------------
DR         Peak         RMS     Duration Track
--------------------------------------------------------------------------------
DR9       -1.80 dB   -14.47 dB      3:28 01-Someone You Loved  (Arr. For Two Cellos)
DR9       -2.73 dB   -16.66 dB      3:41 02-Fragile  (Arr. For Two Cellos)
DR11      -1.45 dB   -18.38 dB      3:33 03-Love Is a Losing Game  (Arr. For Two Cellos)
DR10      -1.49 dB   -15.52 dB      4:12 04-Writing's on the Wall  (Arr. For Two Cellos)
DR9       -1.16 dB   -14.40 dB      3:28 05-Shallow  (Arr. For Two Cellos)
DR11      -0.96 dB   -16.26 dB      4:18 06-Bailando  (Arr. For Two Cellos)
--------------------------------------------------------------------------------
Number of tracks:  6
Official DR value: DR10
Samplerate:        96000 Hz
Channels:          2
Bits per sample:   24
Bitrate:           2384 kbps
Codec:             FLAC
================================================================================

Правила, инструкции, FAQ!!!
Торрент  Добавлен [29 фев 2020, 00:27] Скачать торрент Магнет ссылка
Скачать торрент
[ Размер 15.5 КБ / Просмотров 5 ]

Статус
Проверен 
 
Размер  372.48 МБ
Приватный: Нет (DHT включён)
.torrent скачан  0
 


     Отправить личное сообщение
   
Страница 1 из 1
Показать сообщения за:  Поле сортировки  
Начать новую тему Ответить на тему


Сейчас этот форум просматривают: нет зарегистрированных пользователей и гости: 0


Вы не можете начинать темы
Вы не можете отвечать на сообщения
Вы не можете редактировать свои сообщения
Вы не можете удалять свои сообщения
Вы не можете добавлять вложения

Перейти:  
cron