Начать новую тему Ответить на тему
Статистика раздачи
Размер: 345.05 МБ | Добавлен: 25 авг 2013, 19:45 | Скачали: 2
Сидеров: 3  [0 байт/сек]    Личеров: 2  [0 байт/сек]
Пред. тема | След. тема 

Автор
Сообщение

СообщениеДобавлено: 25 авг 2013, 19:45 

Ответить с цитатой 

Motorhead - The Very Best Of... (2002)


Год: 2002
Жанр: Hard Rock, Heavy Metal
Продолжительность: 00:47:29
Производитель диска: Sanctuary Records
Кодек: APE
Битрейт: Lossless

Треклист:
01 Iron Fist 2:54
02 Overkill 5:12
03 Bomber 3:44
04 Ace of Spades 2:48
05 Damage Case 3:03
06 No Class 2:41
07 Stay Clean 2:40
08 Motorhead (Live) 3:37
09 Over the Top 3:20
10 Dead Men Tell No Tales 3:09
11 Shine 3:11 $0.89
12 Killed By Death 4:39
13 Tear Ya Down 2:39
14 Iron Horse - Born to Lose 3:47
В 1975 году Лемми (Ян Килмистер, р. 24 декабря 1945, Сток-он-Трент, Англия; вокал, бас) был выгнан из "Hawkwind" после неприятностей с канадской таможней. Последняя песня, которую он написал для них, называлась "Motorhead", и также стала называться его группа, которую он основал совместно с гитаристом Ларри Уоллисом из "Pink fairies" и ударником Лукасом Фоксом...
Код:
Код:
Exact Audio Copy V0.99 prebeta 4 from 23. January 2008

Отчёт EAC об извлечении, выполненном 2. апреля 2009, 21:01

Motorhead / The Very Best Of

Дисковод: ASUS DRW-1814BLT Adapter: 0 ID: 1

Режим чтения : Достоверность
Использование точного потока : Да
Отключение кэша аудио : Да
Использование указателей C2 : Нет

Коррекция смещения при чтении : 6
Способность читать области Lead-in и Lead-out : Нет
Заполнение пропущенных сэмплов тишиной : Да
Удаление блоков с тишиной в начале и конце : Нет
При вычислениях CRC использовались нулевые сэмплы : Да
Интерфейс : Встроенный Win32-интерфейс для Win NT/2000

Выходной формат : Внутренние WAV-операции
Формат сэмплов : 44.100 Гц; 16 бит; стерео

TOC извлечённого CD

Трек | Старт | Длительность | Начальный сектор | Конечный сектор
---------------------------------------------------------------------
1 | 0:00.00 | 2:55.62 | 0 | 13186
2 | 2:55.62 | 5:14.03 | 13187 | 36739
3 | 8:09.65 | 3:43.38 | 36740 | 53502
4 | 11:53.28 | 2:50.03 | 53503 | 66255
5 | 14:43.31 | 3:04.74 | 66256 | 80129
6 | 17:48.30 | 2:42.10 | 80130 | 92289
7 | 20:30.40 | 2:42.37 | 92290 | 104476
8 | 23:13.02 | 3:38.66 | 104477 | 120892
9 | 26:51.68 | 3:21.58 | 120893 | 136025
10 | 30:13.51 | 3:07.25 | 136026 | 150075
11 | 33:21.01 | 3:12.38 | 150076 | 164513
12 | 36:33.39 | 4:40.23 | 164514 | 185536
13 | 41:13.62 | 2:41.61 | 185537 | 197672
14 | 43:55.48 | 3:46.21 | 197673 | 214643

Характеристики диапазона извлечения и сообщения об ошибках

Выбранный диапазон

Имя файла F:\Motorhead - The Very Best Of\Motorhead - The Very Best Of.wav

Пиковый уровень 94.7 %
Качество диапазона 100.0 %
CRC копии 2EE01626
Копирование... OK

Ошибок не произошло

Конец отчёта
Код:
Код:
-----------------------

DON'T MODIFY THIS FILE

-----------------------

PERFORMER: auCDtect Task Manager, ver. 1.6.0 RC1 build 1.6.0.1
Copyright (c) 2008-2010 y-soft. All rights reserved
http:/y-soft.org

ANALYZER: auCDtect: CD records authenticity detector, version 0.8.2
Copyright (c) 2004 Oleg Berngardt. All rights reserved.
Copyright (c) 2004 Alexander Djourik. All rights reserved.

FILE: Motorhead - The Very Best Of.ape
  Size: 361755524 Hash: A3C6DB7D451BED67DE7F5E1785BD3F9E Accuracy: -m0
  Conclusion: CDDA 100%
  Signature: 0A5AFD0664D96AAE2A677801FE695F46915789E8
Правила, инструкции, FAQ!!!
Торрент  Добавлен [25 авг 2013, 19:45] Скачать торрент Магнет ссылка
Скачать торрент
[ Размер 14.44 КБ / Просмотров 89 ]

Статус  
 
Размер  345.05 МБ
Приватный: Нет (DHT включён)
.torrent скачан  2
 


     Отправить личное сообщение
   
Страница 1 из 1
Показать сообщения за:  Поле сортировки  
Начать новую тему Ответить на тему


Сейчас этот форум просматривают: нет зарегистрированных пользователей и гости: 0


Вы не можете начинать темы
Вы не можете отвечать на сообщения
Вы не можете редактировать свои сообщения
Вы не можете удалять свои сообщения
Вы не можете добавлять вложения

Перейти:  
cron
cron