Начать новую тему Ответить на тему
Статистика раздачи
Размер: 349.21 МБ | Добавлен: 05 дек 2013, 10:39 | Скачали: 0
Сидеров: 0  [0 байт/сек]    Личеров: 0  [0 байт/сек]
Пред. тема | След. тема 

Автор
Сообщение

СообщениеДобавлено: 05 дек 2013, 10:39 

Ответить с цитатой 

Mother Black Cap - Energy (2013)

Год: 2013
Страна-производитель диска: UK
Издатель (лейбл): Cyclops Records
Номер по каталогу #: CYCL 178
Жанр: Symphonic Prog / Progressive Rock
Продолжительность: 00:49:02

Кодек: FLAC (*.flac)
Битрейт: Lossless
Тип рипа: image+.cue
Спасибо: Pasheka-Pacheka

Треклист:
01. Modern World (6:36)
02. Life Was Good (4:26)
03. Moving On (3:41)
04. Don't Let Them Grind You Down (8:22)
05. Fifty Five (3:55)
06. Queen And Country (4:58)
07. Daydreams Of The Big Stage (4:59)
08. Amsterdam (3:04)
09. Silent Fifty Million (3:34)
10. Living Laid Back (5:26)
Код:
Код:
Exact Audio Copy V1.0 beta 3 from 29. August 2011

Отчёт EAC об извлечении, выполненном 2. ноября 2013, 12:04

Mother Black Cap / Energy

Дисковод: ASUS    BW-12D1S-U   Adapter: 1  ID: 1

Режим чтения                 : Достоверность
Использование точного потока : Да
Отключение кэша аудио        : Да
Использование указателей C2  : Нет

Коррекция смещения при чтении                     : 667
Способность читать области Lead-in и Lead-out     : Нет
Заполнение пропущенных сэмплов тишиной            : Да
Удаление блоков с тишиной в начале и конце        : Нет
При вычислениях CRC использовались нулевые сэмплы : Да
Интерфейс                                         : Встроенный Win32-интерфейс для Win NT/2000

Выходной формат          : Пользовательский кодировщик
Выбранный битрейт        : 1024 kBit/s
Качество                 : Высокий
Добавление ID3-тега      : Нет
Утилита сжатия           : C:\Program Files (x86)\Exact Audio Copy\Flac\flac.exe
Дополнительные параметры :  -V -8 -T "Date=%year%" -T "Genre=%genre%" %source%

TOC извлечённого CD

     Трек |   Старт  | Длительность | Начальный сектор | Конечный сектор
    ---------------------------------------------------------------------
       1  |  0:00.00 |    6:36.20   |           0      |      29719
       2  |  6:36.20 |    4:26.18   |       29720      |      49687
       3  | 11:02.38 |    3:40.68   |       49688      |      66255
       4  | 14:43.31 |    8:22.18   |       66256      |     103923
       5  | 23:05.49 |    3:55.30   |      103924      |     121578
       6  | 27:01.04 |    4:57.68   |      121579      |     143921
       7  | 31:58.72 |    4:59.23   |      143922      |     166369
       8  | 36:58.20 |    3:04.03   |      166370      |     180172
       9  | 40:02.23 |    3:33.57   |      180173      |     196204
      10  | 43:36.05 |    5:26.21   |      196205      |     220675

Характеристики диапазона извлечения и сообщения об ошибках

Выбранный диапазон

     Имя файла E:\cd\Mother Black Cap (2013) - Energy\Mother Black Cap - Energy.wav

     Пиковый уровень 93.8 %
     Скорость извлечения 1.7 X
     Качество диапазона 100.0 %
     CRC теста 1EFDDFDF
     CRC копии 1EFDDFDF
     Копирование... OK

Ошибок не произошло

AccurateRip: сводка

Трек  1  отсутствует в базе данных
Трек  2  отсутствует в базе данных
Трек  3  отсутствует в базе данных
Трек  4  отсутствует в базе данных
Трек  5  отсутствует в базе данных
Трек  6  отсутствует в базе данных
Трек  7  отсутствует в базе данных
Трек  8  отсутствует в базе данных
Трек  9  отсутствует в базе данных
Трек 10  отсутствует в базе данных

Ни одного трека нет в базе AccurateRip

Конец отчёта
Код:
Код:
-----------------------

DON'T MODIFY THIS FILE

-----------------------

PERFORMER: auCDtect Task Manager, ver. 1.5.1RC4 build 1.5.1.5
Copyright (c) 2008-2010 y-soft. All rights reserved
http:/y-soft.org

ANALYZER: auCDtect: CD records authenticity detector, version 0.8.2
Copyright (c) 2004 Oleg Berngardt. All rights reserved.
Copyright (c) 2004 Alexander Djourik. All rights reserved.

FILE: Mother Black Cap - Energy.flac
  Size: 339807190 Hash: 841BFCCB75E9614C9B0E164B03D15EB2 Accuracy: -m0
  Conclusion: CDDA 100%
  Signature: D72955CACF4F45362086809FFDAE2116BFD7463D
Код:
Код:
REM GENRE "Progressive Rock"
REM DATE 2013
REM DISCID 870B7E0A
REM COMMENT "ExactAudioCopy v1.0b3"
PERFORMER "Mother Black Cap"
TITLE "Energy"
FILE "Mother Black Cap - Energy.flac" WAVE
  TRACK 01 AUDIO
    TITLE "Modern World"
    PERFORMER "Mother Black Cap"
    INDEX 01 00:00:00
  TRACK 02 AUDIO
    TITLE "Life Was Good"
    PERFORMER "Mother Black Cap"
    INDEX 00 06:34:20
    INDEX 01 06:36:20
  TRACK 03 AUDIO
    TITLE "Moving On"
    PERFORMER "Mother Black Cap"
    INDEX 00 11:00:38
    INDEX 01 11:02:38
  TRACK 04 AUDIO
    TITLE "Bastards"
    PERFORMER "Mother Black Cap"
    INDEX 00 14:41:31
    INDEX 01 14:43:31
  TRACK 05 AUDIO
    TITLE "Fifty Five"
    PERFORMER "Mother Black Cap"
    INDEX 00 23:03:49
    INDEX 01 23:05:49
  TRACK 06 AUDIO
    TITLE "Queen & Country"
    PERFORMER "Mother Black Cap"
    INDEX 00 26:59:04
    INDEX 01 27:01:04
  TRACK 07 AUDIO
    TITLE "Twiddly Dee"
    PERFORMER "Mother Black Cap"
    INDEX 00 31:56:72
    INDEX 01 31:58:72
  TRACK 08 AUDIO
    TITLE "Amsterdam"
    PERFORMER "Mother Black Cap"
    INDEX 00 36:56:20
    INDEX 01 36:58:20
  TRACK 09 AUDIO
    TITLE "Silent 50 Million"
    PERFORMER "Mother Black Cap"
    INDEX 00 40:00:23
    INDEX 01 40:02:23
  TRACK 10 AUDIO
    TITLE "Living Laid Back"
    PERFORMER "Mother Black Cap"
    INDEX 00 43:34:05
    INDEX 01 43:36:05

Правила, инструкции, FAQ!!!
Торрент  Добавлен [05 дек 2013, 10:39] Скачать торрент Магнет ссылка
Скачать торрент
[ Размер 14.9 КБ / Просмотров 27 ]

Статус  
 
Размер  349.21 МБ
Приватный: Нет (DHT включён)
.torrent скачан  0
 


     Отправить личное сообщение
   
Страница 1 из 1
Показать сообщения за:  Поле сортировки  
Начать новую тему Ответить на тему


Сейчас этот форум просматривают: нет зарегистрированных пользователей и гости: 0


Вы не можете начинать темы
Вы не можете отвечать на сообщения
Вы не можете редактировать свои сообщения
Вы не можете удалять свои сообщения
Вы не можете добавлять вложения

Перейти:  
cron
cron