Начать новую тему Ответить на тему
Статистика раздачи
Размер: 650.06 МБ | Добавлен: 01 июл 2017, 08:47 | Скачали: 1
Сидеров: 5  [0 байт/сек]    Личеров: 1  [0 байт/сек]
Пред. тема | След. тема 

Автор
Сообщение

СообщениеДобавлено: 01 июл 2017, 08:47 

Ответить с цитатой 

Monica / Code Red
Формат записи/Источник записи: [TR24][OF]
Наличие водяных знаков: Нет
Год издания/переиздания диска: 2015
Жанр: R&B
Издатель(лейбл): RCA Records
Продолжительность: 52:36
Наличие сканов в содержимом раздачи: Только обложка альбома
Треклист:
1. Code Red
2. Just Right For Me
3. Love Just Ain't Enough
4. Call My Name
5. I Know
6. All Men Lie
7. Deep
8. Hustler's Ambition
9. Alone In Your Heart
10. Suga
11. Ocean Of Tears
12. Saints & Sinners
13. I Miss Music
14. Anchor
Контейнер: FLAC (*.flac)
Тип рипа: tracks
Разрядность: 24/48
Формат: PCM
Количество каналов: 2.0
Код:
foobar2000 1.3.13 / Замер динамического диапазона (DR) 1.1.1
Дата отчёта:  2017-01-29 17:09:41
--------------------------------------------------------------------------------
Анализ:   Monica / Code Red
--------------------------------------------------------------------------------
DR         Пики         RMS           Продолжительность трека
--------------------------------------------------------------------------------
DR5       -0.13 дБ    -7.60 дБ      4:25 01-Code Red
DR5       -0.09 дБ    -6.94 дБ      3:20 02-Just Right For Me
DR7       -0.13 дБ    -9.66 дБ      3:23 03-Love Just Ain't Enough
DR7       -0.13 дБ    -9.82 дБ      4:14 04-Call My Name
DR8       -0.13 дБ   -13.60 дБ      3:18 05-I Know
DR6       -0.13 дБ    -9.97 дБ      2:32 06-All Men Lie
DR7       -0.13 дБ    -9.52 дБ      3:54 07-Deep
DR9       -0.13 дБ   -10.99 дБ      4:18 08-Hustler's Ambition
DR6       -0.13 дБ    -8.39 дБ      3:36 09-Alone In Your Heart
DR5       -0.13 дБ    -6.96 дБ      3:21 10-Suga
DR7       -0.13 дБ    -8.68 дБ      3:56 11-Ocean Of Tears
DR8       -0.13 дБ   -10.60 дБ      4:04 12-Saints & Sinners
DR7       -0.13 дБ   -10.35 дБ      3:14 13-I Miss Music
DR7       -0.13 дБ    -9.56 дБ      5:01 14-Anchor
--------------------------------------------------------------------------------
Количество треков: 14
Реальные значения DR: DR7
Частота:   48000 Гц
Каналов:   2
Разрядность:   24
Битрейт:   1747 кбит/с
Кодек:   FLAC
================================================================================


Источник (релизер):
Правила, инструкции, FAQ!!!
Торрент  Добавлен [01 июл 2017, 08:47] Скачать торрент Магнет ссылка
Скачать торрент
[ Размер 13.96 КБ / Просмотров 31 ]

Статус
Проверен 
 
Размер  650.06 МБ
Приватный: Нет (DHT включён)
.torrent скачан  1
 


     Отправить личное сообщение
   
Страница 1 из 1
Показать сообщения за:  Поле сортировки  
Начать новую тему Ответить на тему


Сейчас этот форум просматривают: нет зарегистрированных пользователей и гости: 0


Вы не можете начинать темы
Вы не можете отвечать на сообщения
Вы не можете редактировать свои сообщения
Вы не можете удалять свои сообщения
Вы не можете добавлять вложения

Перейти:  
cron