Начать новую тему Ответить на тему
Статистика раздачи
Размер: 289.69 МБ | Добавлен: 16 мар 2014, 00:10 | Скачали: 0
Сидеров: 1  [0 байт/сек]    Личеров: 0  [0 байт/сек]
Пред. тема | След. тема 

Автор
Сообщение

СообщениеДобавлено: 16 мар 2014, 00:10 

Ответить с цитатой 

Mon Dyh - Murderer (1980) Reissue 1992

Жанр: Rock/Blues Rock
Год: 1980
Страна: Germany
Released: 1992/Germany
Label: Green Tree Records
Catalog#: TRC-GTR-CD-005
Аудио кодек: FLAC
Тип рипа: image+.cue
Битрейт аудио: lossless
Продолжительность: 00:47:34
Источник-релизер: evc
Scans: в раздаче
Треклист:
01. Don't You Break My Heart (4:48)
02. Murderer (3:58)
03. Trying (4:59)
04. Magic Piano (6:01)
05. Just A Minute (3:47)
06. A Needle Must Not Lay Down (4:32)
07. One Second Man (2:50)
08. Encountered The Edge (5:58)
09. All Along The Watchtower (Dylan) (4:51)
10. Have You Ever Loved A Woman (Miles) (6:09)
#777
Дебютный альбом группы из Западного Берлина (всего 3 альбома, 1980-1983). неуклонно играли блюз-роковые сложные и лирические композиции и с точки зрения критиков были очень перспективными музыкантами этого стиля. В 1980 году группа записала первый альбом Murderer в маленькой студии, без помощи продюсера и поддержки со стороны звукозаписывающих компаний. Но получился отличный альбом, вокал - на английском языке.

Musicians:
- Acoustic Guitar – Harald Kunemund
- Bass – Harald Frohloff
- Drums – Markus Worbs
- Producer – Andreas Prohl
- Vocals, Guitar – Andreas Prohl

Notes
Recorded at Highball Studio Berlin
track 9 + 10 (bonus on this CD edition) and live aufgenommen am 5.7.1980 im noteingang berlin (am mixer: Uwe Gersonde)
Код:
Код:
Exact Audio Copy V0.99 prebeta 3 from 28. July 2007

EAC extraction logfile from 3. December 2008, 18:38

Mon Dyh / Murderer

Used drive  : Memorex DVD+-RAM 530L v1   Adapter: 0  ID: 0

Read mode               : Secure
Utilize accurate stream : Yes
Defeat audio cache      : Yes
Make use of C2 pointers : No

Read offset correction                      : 6
Overread into Lead-In and Lead-Out          : No
Fill up missing offset samples with silence : Yes
Delete leading and trailing silent blocks   : No
Null samples used in CRC calculations       : Yes
Used interface                              : Installed external ASPI interface

Used output format : Internal WAV Routines
Sample format      : 44.100 Hz; 16 Bit; Stereo

TOC of the extracted CD

     Track |   Start  |  Length  | Start sector | End sector
    ---------------------------------------------------------
        1  |  0:00.00 |  4:47.67 |         0    |    21591
        2  |  4:47.67 |  3:57.60 |     21592    |    39426
        3  |  8:45.52 |  4:58.65 |     39427    |    61841
        4  | 13:44.42 |  6:01.35 |     61842    |    88951
        5  | 19:46.02 |  3:46.53 |     88952    |   105954
        6  | 23:32.55 |  4:31.40 |    105955    |   126319
        7  | 28:04.20 |  2:49.50 |    126320    |   139044
        8  | 30:53.70 |  5:58.35 |    139045    |   165929
        9  | 36:52.30 |  4:51.37 |    165930    |   187791
       10  | 41:43.67 |  6:08.40 |    187792    |   215431

Range status and errors

Selected range

     Filename C:\Documents and Settings\Compaq_Owner.LIAM.000\Desktop\Mon Dyh - Murderer.wav

     Peak level 97.9 %
     Range quality 100.0 %
     Copy CRC 038E870E
     Copy OK

No errors occurred

End of status report
Код:
Код:
-----------------------

DON'T MODIFY THIS FILE

-----------------------

PERFORMER: auCDtect Task Manager, ver. 1.6.0 RC1 build 1.6.0.1
Copyright (c) 2008-2010 y-soft. All rights reserved
http:/y-soft.org

ANALYZER: auCDtect: CD records authenticity detector, version 0.8.2
Copyright (c) 2004 Oleg Berngardt. All rights reserved.
Copyright (c) 2004 Alexander Djourik. All rights reserved.

FILE: Mon Dyh - Murderer.flac
  Size: 300379799 Hash: 58DD10C35B73BABC92CAC83EBDADFB4D Accuracy: -m0
  Conclusion: CDDA 99%
  Signature: 6DB2F95DA6919BA5849C2B4C76AE9A75F5BD4B3F
Правила, инструкции, FAQ!!!
Торрент  Добавлен [16 мар 2014, 00:10] Скачать торрент Магнет ссылка
Скачать торрент
[ Размер 12.58 КБ / Просмотров 17 ]

Статус  
 
Размер  289.69 МБ
Приватный: Нет (DHT включён)
.torrent скачан  0
 


     Отправить личное сообщение
   
Страница 1 из 1
Показать сообщения за:  Поле сортировки  
Начать новую тему Ответить на тему


Сейчас этот форум просматривают: нет зарегистрированных пользователей и гости: 0


Вы не можете начинать темы
Вы не можете отвечать на сообщения
Вы не можете редактировать свои сообщения
Вы не можете удалять свои сообщения
Вы не можете добавлять вложения

Перейти:  
cron