Начать новую тему Ответить на тему
Статистика раздачи
Размер: 327.17 МБ | Добавлен: 16 мар 2014, 00:15 | Скачали: 0
Сидеров: 1  [0 байт/сек]    Личеров: 0  [0 байт/сек]
Пред. тема | След. тема 

Автор
Сообщение

СообщениеДобавлено: 16 мар 2014, 00:15 

Ответить с цитатой 

Mojo Makers - Wait Till The Morning (2013)

Год: 2013
Жанр: Blues Rock
Лейбл: Hypertension the Art of Music
Каталог #: HYP13298
Продолжительность: 00:48:05
Кодек: FLAC
Тип рипа: tracks + .cue
Битрейт: Lossless
Треклист:
01. Wait Till The Morning - Prelude (1:06)
02. Wait Till The Morning (3:54)
03. Hold On (3:22)
04. The Devil (4:25)
05. Red Lights (4:13)
06. Faster With The Gun (5:29)
07. Coming Home To You (3:41)
08. No Good (3:18)
09. Wild Moon Child (3:43)
10. Up To You (4:40)
11. Let Me Take You There (4:06)
12. Light On Love (6:08)
Код:
Код:
Exact Audio Copy V1.0 beta 3 from 29. August 2011

EAC extraction logfile from 6. November 2013, 15:38

Mojo Makers / Wait Till The Morning

Used drive  : ATAPI   DVD A  DH16AASH   Adapter: 1  ID: 1

Read mode               : Secure
Utilize accurate stream : Yes
Defeat audio cache      : Yes
Make use of C2 pointers : No

Read offset correction                      : 6
Overread into Lead-In and Lead-Out          : No
Fill up missing offset samples with silence : Yes
Delete leading and trailing silent blocks   : No
Null samples used in CRC calculations       : Yes
Used interface                              : Native Win32 interface for Win NT & 2000
Gap handling                                : Appended to previous track

Used output format              : User Defined Encoder
Selected bitrate                : 1024 kBit/s
Quality                         : High
Add ID3 tag                     : No
Command line compressor         : C:\Program Files (x86)\FLAC\flac.exe
Additional command line options : -8 -V -T "ARTIST=%artist%" -T "TITLE=%title%" -T "ALBUM=%albumtitle%" -T "DATE=%year%" -T "TRACKNUMBER=%tracknr%" -T "GENRE=%genre%" -T "PERFORMER=%albuminterpret%" -T "COMPOSER=%composer%" %haslyrics%--tag-from-file=LYRICS="%lyricsfile%"%haslyrics% -T "ALBUMARTIST=%albumartist%" -T "ALBUM ARTIST=%albumartist%" -T "DISCNUMBER=%cdnumber%" -T "TOTALDISCS=%totalcds%" -T "TOTALTRACKS=%numtracks%" -T "COMMENT=EAC V1.0 beta 2, Secure Mode, Test & Copy, AccurateRip, FLAC -8" %source% -o %dest%

TOC of the extracted CD

     Track |   Start  |  Length  | Start sector | End sector
    ---------------------------------------------------------
        1  |  0:00.00 |  1:06.00 |         0    |     4949
        2  |  1:06.00 |  3:54.00 |      4950    |    22499
        3  |  5:00.00 |  3:22.00 |     22500    |    37649
        4  |  8:22.00 |  4:24.40 |     37650    |    57489
        5  | 12:46.40 |  4:12.66 |     57490    |    76455
        6  | 16:59.31 |  5:28.38 |     76456    |   101093
        7  | 22:27.69 |  3:40.39 |    101094    |   117632
        8  | 26:08.33 |  3:18.13 |    117633    |   132495
        9  | 29:26.46 |  3:43.18 |    132496    |   149238
       10  | 33:09.64 |  4:40.33 |    149239    |   170271
       11  | 37:50.22 |  4:06.33 |    170272    |   188754
       12  | 41:56.55 |  6:07.66 |    188755    |   216345

Track  1

     Filename F:\Converted Flac\01 Wait Till The Morning - Prelude.wav

     Pre-gap length  0:00:02.00

     Peak level 91.4 %
     Extraction speed 2.2 X
     Track quality 100.0 %
     Test CRC 9E8C8EEF
     Copy CRC 9E8C8EEF
     Track not present in AccurateRip database
     Copy OK

Track  2

     Filename F:\Converted Flac\02 Wait Till The Morning.wav

     Peak level 92.8 %
     Extraction speed 3.3 X
     Track quality 100.0 %
     Test CRC E3883CCB
     Copy CRC E3883CCB
     Track not present in AccurateRip database
     Copy OK

Track  3

     Filename F:\Converted Flac\03 Hold On.wav

     Peak level 92.7 %
     Extraction speed 3.5 X
     Track quality 100.0 %
     Test CRC 36E01A45
     Copy CRC 36E01A45
     Track not present in AccurateRip database
     Copy OK

Track  4

     Filename F:\Converted Flac\04 The Devil.wav

     Peak level 92.9 %
     Extraction speed 3.9 X
     Track quality 100.0 %
     Test CRC C9D1BF6C
     Copy CRC C9D1BF6C
     Track not present in AccurateRip database
     Copy OK

Track  5

     Filename F:\Converted Flac\05 Red Lights.wav

     Peak level 92.9 %
     Extraction speed 4.1 X
     Track quality 100.0 %
     Test CRC 5FA1CBBE
     Copy CRC 5FA1CBBE
     Track not present in AccurateRip database
     Copy OK

Track  6

     Filename F:\Converted Flac\06 Faster With The Gun.wav

     Peak level 92.8 %
     Extraction speed 4.6 X
     Track quality 100.0 %
     Test CRC 4024D775
     Copy CRC 4024D775
     Track not present in AccurateRip database
     Copy OK

Track  7

     Filename F:\Converted Flac\07 Coming Home To You.wav

     Peak level 92.7 %
     Extraction speed 4.6 X
     Track quality 100.0 %
     Test CRC 6FFF9A4D
     Copy CRC 6FFF9A4D
     Track not present in AccurateRip database
     Copy OK

Track  8

     Filename F:\Converted Flac\08 No Good.wav

     Peak level 92.7 %
     Extraction speed 3.7 X
     Track quality 99.9 %
     Test CRC 60BE7D2A
     Copy CRC 60BE7D2A
     Track not present in AccurateRip database
     Copy OK

Track  9

     Filename F:\Converted Flac\09 Wild Moon Child.wav

     Peak level 98.8 %
     Extraction speed 4.9 X
     Track quality 100.0 %
     Test CRC 3FE502B8
     Copy CRC 3FE502B8
     Track not present in AccurateRip database
     Copy OK

Track 10

     Filename F:\Converted Flac\10 Up To You.wav

     Peak level 98.8 %
     Extraction speed 5.1 X
     Track quality 100.0 %
     Test CRC 2730DF39
     Copy CRC 2730DF39
     Track not present in AccurateRip database
     Copy OK

Track 11

     Filename F:\Converted Flac\11 Let Me Take You There.wav

     Peak level 98.8 %
     Extraction speed 5.3 X
     Track quality 100.0 %
     Test CRC 554B99D5
     Copy CRC 554B99D5
     Track not present in AccurateRip database
     Copy OK

Track 12

     Filename F:\Converted Flac\12 Light On Love.wav

     Peak level 92.7 %
     Extraction speed 5.0 X
     Track quality 99.9 %
     Test CRC 83C56706
     Copy CRC 83C56706
     Track not present in AccurateRip database
     Copy OK

None of the tracks are present in the AccurateRip database

No errors occurred

End of status report

==== Log checksum B3DDFC0C2A94C1E7BA437D6299F523F99C6869FE1B1A69F81437290B49A46BCB ====

Код:
Код:
-----------------------

DON'T MODIFY THIS FILE

-----------------------

PERFORMER: auCDtect Task Manager, ver. 1.6.0 RC1 build 1.6.0.1
Copyright (c) 2008-2010 y-soft. All rights reserved
http:/y-soft.org

ANALYZER: auCDtect: CD records authenticity detector, version 0.8.2
Copyright (c) 2004 Oleg Berngardt. All rights reserved.
Copyright (c) 2004 Alexander Djourik. All rights reserved.

FILE: 04 The Devil.flac
  Size: 33974572 Hash: 776427A65B36B3F48FCBFD15C54EE4CC Accuracy: -m0
  Conclusion: CDDA 100%
  Signature: BD0900E0745CCC732065DC165B8B92994FE77847
FILE: 03 Hold On.flac
  Size: 23548483 Hash: 6A4C2CF62628E9CE789653C69805A321 Accuracy: -m0
  Conclusion: CDDA 100%
  Signature: B6CC5AE8B8DEA67AD38C7344DEB0C14D6A4D23CD
FILE: 01 Wait Till The Morning - Prelude.flac
  Size: 5098756 Hash: EA4B0C32C152747C94A6758F1424B9BB Accuracy: -m0
  Conclusion: ???
  Signature: 88B34D9D0377E25A95DD1DA235F6D1FFEE179AEB
FILE: 12 Light On Love.flac
  Size: 35246087 Hash: ADDDC34EA16D1B4FF7E8D31C2FD24EFC Accuracy: -m0
  Conclusion: MPEG 89%
  Signature: F240B9E1B353BCC7EA211D3473301313469ADD4E
FILE: 09 Wild Moon Child.flac
  Size: 29595150 Hash: 2615BBD4E29DC6595EFB3F96FC9C3A9C Accuracy: -m0
  Conclusion: CDDA 100%
  Signature: D355ED1E67CC94050E3F26DB024A847502E68607
FILE: 08 No Good.flac
  Size: 24215363 Hash: DF97FE86D46591DEFD8EAA56DACF2C69 Accuracy: -m0
  Conclusion: MPEG 95%
  Signature: 4FEB171C338A1BE6BA589B38EE02E380973F097B

Код:
Код:
REM GENRE Blues
REM DATE 2013
REM DISCID 9C0B440C
REM COMMENT "ExactAudioCopy v1.0b3"
PERFORMER "Mojo Makers"
TITLE "Wait Till The Morning"
FILE "01 Wait Till The Morning - Prelude.wav" WAVE
  TRACK 01 AUDIO
    TITLE "Wait Till The Morning - Prelude"
    PERFORMER "Mojo Makers"
    ISRC DER211329801
    FLAGS DCP
    INDEX 01 00:00:00
FILE "02 Wait Till The Morning.wav" WAVE
  TRACK 02 AUDIO
    TITLE "Wait Till The Morning"
    PERFORMER "Mojo Makers"
    ISRC DER211329802
    FLAGS DCP
    INDEX 01 00:00:00
FILE "03 Hold On.wav" WAVE
  TRACK 03 AUDIO
    TITLE "Hold On"
    PERFORMER "Mojo Makers"
    ISRC DER211329803
    FLAGS DCP
    INDEX 01 00:00:00
FILE "04 The Devil.wav" WAVE
  TRACK 04 AUDIO
    TITLE "The Devil"
    PERFORMER "Mojo Makers"
    ISRC DER211329804
    FLAGS DCP
    INDEX 01 00:00:00
FILE "05 Red Lights.wav" WAVE
  TRACK 05 AUDIO
    TITLE "Red Lights"
    PERFORMER "Mojo Makers"
    ISRC DER211329805
    FLAGS DCP
    INDEX 01 00:00:00
FILE "06 Faster With The Gun.wav" WAVE
  TRACK 06 AUDIO
    TITLE "Faster With The Gun"
    PERFORMER "Mojo Makers"
    ISRC DER211329806
    FLAGS DCP
    INDEX 01 00:00:00
FILE "07 Coming Home To You.wav" WAVE
  TRACK 07 AUDIO
    TITLE "Coming Home To You"
    PERFORMER "Mojo Makers"
    ISRC DER211329807
    FLAGS DCP
    INDEX 01 00:00:00
FILE "08 No Good.wav" WAVE
  TRACK 08 AUDIO
    TITLE "No Good"
    PERFORMER "Mojo Makers"
    ISRC DER211329808
    FLAGS DCP
    INDEX 01 00:00:00
FILE "09 Wild Moon Child.wav" WAVE
  TRACK 09 AUDIO
    TITLE "Wild Moon Child"
    PERFORMER "Mojo Makers"
    ISRC DER211329809
    FLAGS DCP
    INDEX 01 00:00:00
FILE "10 Up To You.wav" WAVE
  TRACK 10 AUDIO
    TITLE "Up To You"
    PERFORMER "Mojo Makers"
    ISRC DER211329810
    FLAGS DCP
    INDEX 01 00:00:00
FILE "11 Let Me Take You There.wav" WAVE
  TRACK 11 AUDIO
    TITLE "Let Me Take You There"
    PERFORMER "Mojo Makers"
    ISRC DER211329811
    FLAGS DCP
    INDEX 01 00:00:00
FILE "12 Light On Love.wav" WAVE
  TRACK 12 AUDIO
    TITLE "Light On Love"
    PERFORMER "Mojo Makers"
    ISRC DER211329812
    FLAGS DCP
    INDEX 01 00:00:00

Правила, инструкции, FAQ!!!
Торрент  Добавлен [16 мар 2014, 00:15] Скачать торрент Магнет ссылка
Скачать торрент
[ Размер 14.43 КБ / Просмотров 24 ]

Статус  
 
Размер  327.17 МБ
Приватный: Нет (DHT включён)
.torrent скачан  0
 


     Отправить личное сообщение
   
Страница 1 из 1
Показать сообщения за:  Поле сортировки  
Начать новую тему Ответить на тему


Сейчас этот форум просматривают: нет зарегистрированных пользователей и гости: 0


Вы не можете начинать темы
Вы не можете отвечать на сообщения
Вы не можете редактировать свои сообщения
Вы не можете удалять свои сообщения
Вы не можете добавлять вложения

Перейти:  
cron