Начать новую тему Ответить на тему
Статистика раздачи
Размер: 297.83 МБ | Добавлен: 16 мар 2014, 00:41 | Скачали: 2
Сидеров: 1  [0 байт/сек]    Личеров: 1  [0 байт/сек]
Пред. тема | След. тема 

Автор
Сообщение

СообщениеДобавлено: 16 мар 2014, 00:41 

Ответить с цитатой 

Mogwai - Rave Tapes (2014)

Год: 2014
Жанр: Post-Rock
Лейбл: Rock Action Records
Номер по каталогу: ROCKACT80
Продолжительность: 00:49:04

Кодек: FLAC
Битрейт: Lossless
Тип рипа: tracks+.cue

Треклист:
01. Heard About You Last Night (05:24)
02. Simon Ferocious (04:49)
03. Remurdered (06:25)
04. Hexon Bogon (02:35)
05. Repelish (03:56)
06. Mastercard (03:57)
07. Deesh (05:33)
08. Blues Hour (06:17)
09. No Medicine for Regret (05:40)
10. The Lord is Out of Control (04:23)



Код:
Код:
Exact Audio Copy V1.0 beta 3 from 29. August 2011

EAC extraction logfile from 16. January 2014, 20:30

Mogwai / Rave Tapes

Used drive  : HL-DT-STBDDVDRW CH10LS20   Adapter: 1  ID: 0

Read mode               : Secure
Utilize accurate stream : Yes
Defeat audio cache      : Yes
Make use of C2 pointers : No

Read offset correction                      : 667
Overread into Lead-In and Lead-Out          : No
Fill up missing offset samples with silence : Yes
Delete leading and trailing silent blocks   : No
Null samples used in CRC calculations       : Yes
Used interface                              : Native Win32 interface for Win NT & 2000
Gap handling                                : Appended to previous track

Used output format              : User Defined Encoder
Selected bitrate                : 128 kBit/s
Quality                         : High
Add ID3 tag                     : No
Command line compressor         : C:\Program Files (x86)\Exact Audio Copy\Flac\flac.exe
Additional command line options : -8 -V -T "ARTIST=%artist%" -T "TITLE=%title%" -T "ALBUM=%albumtitle%" -T "DATE=%year%" -T "TRACKNUMBER=%tracknr%" -T "TOTALTRACKS=%numtracks%" -T "GENRE=%genre%" -T "ALBUMARTIST=%albumartist%" -T "ALBUM ARTIST=%albumartist%" -T "COMMENT=EAC Secure Mode, Test & Copy, AccurateRip, FLAC -8" %source%

TOC of the extracted CD

     Track |   Start  |  Length  | Start sector | End sector
    ---------------------------------------------------------
        1  |  0:00.00 |  5:24.07 |         0    |    24306
        2  |  5:24.07 |  4:49.10 |     24307    |    45991
        3  | 10:13.17 |  6:25.71 |     45992    |    74937
        4  | 16:39.13 |  2:35.69 |     74938    |    86631
        5  | 19:15.07 |  3:56.23 |     86632    |   104354
        6  | 23:11.30 |  3:57.72 |    104355    |   122201
        7  | 27:09.27 |  5:33.48 |    122202    |   147224
        8  | 32:43.00 |  6:17.65 |    147225    |   175564
        9  | 39:00.65 |  5:40.47 |    175565    |   201111
       10  | 44:41.37 |  4:23.35 |    201112    |   220871

Track  1

     Filename F:\Music\~FLAC\Mogwai\Mogwai - Rave Tapes (2014) [FLAC]\01 - Heard About You Last Night.wav

     Pre-gap length  0:00:02.00

     Peak level 90.0 %
     Extraction speed 1.2 X
     Track quality 100.0 %
     Test CRC 967A3FC2
     Copy CRC 967A3FC2
     Track not present in AccurateRip database
     Copy OK

Track  2

     Filename F:\Music\~FLAC\Mogwai\Mogwai - Rave Tapes (2014) [FLAC]\02 - Simon Ferocious.wav

     Pre-gap length  0:00:00.61

     Peak level 100.0 %
     Extraction speed 1.2 X
     Track quality 99.9 %
     Test CRC 9BC1720E
     Copy CRC 9BC1720E
     Track not present in AccurateRip database
     Copy OK

Track  3

     Filename F:\Music\~FLAC\Mogwai\Mogwai - Rave Tapes (2014) [FLAC]\03 - Remurdered.wav

     Pre-gap length  0:00:01.26

     Peak level 95.0 %
     Extraction speed 1.5 X
     Track quality 100.0 %
     Test CRC 207959F3
     Copy CRC 207959F3
     Track not present in AccurateRip database
     Copy OK

Track  4

     Filename F:\Music\~FLAC\Mogwai\Mogwai - Rave Tapes (2014) [FLAC]\04 - Hexon Bogon.wav

     Pre-gap length  0:00:01.12

     Peak level 96.2 %
     Extraction speed 1.4 X
     Track quality 100.0 %
     Test CRC B84BD4E3
     Copy CRC B84BD4E3
     Track not present in AccurateRip database
     Copy OK

Track  5

     Filename F:\Music\~FLAC\Mogwai\Mogwai - Rave Tapes (2014) [FLAC]\05 - Repelish.wav

     Pre-gap length  0:00:00.68

     Peak level 99.6 %
     Extraction speed 1.6 X
     Track quality 100.0 %
     Test CRC 7AA97B2D
     Copy CRC 7AA97B2D
     Track not present in AccurateRip database
     Copy OK

Track  6

     Filename F:\Music\~FLAC\Mogwai\Mogwai - Rave Tapes (2014) [FLAC]\06 - Mastercard.wav

     Pre-gap length  0:00:00.41

     Peak level 99.7 %
     Extraction speed 1.7 X
     Track quality 100.0 %
     Test CRC 541C8AAA
     Copy CRC 541C8AAA
     Track not present in AccurateRip database
     Copy OK

Track  7

     Filename F:\Music\~FLAC\Mogwai\Mogwai - Rave Tapes (2014) [FLAC]\07 - Deesh.wav

     Pre-gap length  0:00:00.46

     Peak level 98.6 %
     Extraction speed 1.7 X
     Track quality 99.9 %
     Test CRC 7CFE8F8A
     Copy CRC 7CFE8F8A
     Track not present in AccurateRip database
     Copy OK

Track  8

     Filename F:\Music\~FLAC\Mogwai\Mogwai - Rave Tapes (2014) [FLAC]\08 - Blues Hour.wav

     Pre-gap length  0:00:00.60

     Peak level 95.9 %
     Extraction speed 2.0 X
     Track quality 100.0 %
     Test CRC 5768BF37
     Copy CRC 5768BF37
     Track not present in AccurateRip database
     Copy OK

Track  9

     Filename F:\Music\~FLAC\Mogwai\Mogwai - Rave Tapes (2014) [FLAC]\09 - No Medicine for Regret.wav

     Pre-gap length  0:00:01.06

     Peak level 100.0 %
     Extraction speed 1.9 X
     Track quality 99.9 %
     Test CRC 6682B46A
     Copy CRC 6682B46A
     Track not present in AccurateRip database
     Copy OK

Track 10

     Filename F:\Music\~FLAC\Mogwai\Mogwai - Rave Tapes (2014) [FLAC]\10 - The Lord is Out of Control.wav

     Pre-gap length  0:00:01.49

     Peak level 92.6 %
     Extraction speed 2.1 X
     Track quality 100.0 %
     Test CRC 5E098B83
     Copy CRC 5E098B83
     Track not present in AccurateRip database
     Copy OK

None of the tracks are present in the AccurateRip database

No errors occurred

End of status report

---- CUETools DB Plugin V2.1.3

[CTDB TOCID: 5mQtW08dfttvyvu96Uf7V9Uievk-] found, Submit result: 5mQtW08dfttvyvu96Uf7V9Uievk- has been confirmed
[648bc0a6] (2/2) Accurately ripped

==== Log checksum 64372F33FEB0628B55C08CED33F3510DAC883A6459A044ED0E68A025E95E0A5F ====
Код:
Код:
-----------------------

DON'T MODIFY THIS FILE

-----------------------

PERFORMER: auCDtect Task Manager, ver. 1.6.0 RC1 build 1.6.0.1
Copyright (c) 2008-2010 y-soft. All rights reserved
http:/y-soft.org

ANALYZER: auCDtect: CD records authenticity detector, version 0.8.2
Copyright (c) 2004 Oleg Berngardt. All rights reserved.
Copyright (c) 2004 Alexander Djourik. All rights reserved.

FILE: 10 - The Lord is Out of Control.flac
  Size: 29413838 Hash: 7F39726CE22EAD5AFCF946DFBBB3C17F Accuracy: -m0
  Conclusion: CDDA 99%
  Signature: 0966A78C3488EA791A7DDDC7C9EADD6E913A6EC0
FILE: 09 - No Medicine for Regret.flac
  Size: 35261144 Hash: 32B9E6999B68F1F2B3248B09AD005E68 Accuracy: -m0
  Conclusion: CDDA 100%
  Signature: D1DF1C50BF1F37BA8D77260EA5E1F4D60E4E8195
FILE: 08 - Blues Hour.flac
  Size: 37752434 Hash: CAACCC6550291C755DBEEBB173372715 Accuracy: -m0
  Conclusion: CDDA 99%
  Signature: 7BB43722BE3894193C9D1B0D198881CD64D13383
FILE: 07 - Deesh.flac
  Size: 34277840 Hash: A055D479047102FA4804DD90610A6239 Accuracy: -m0
  Conclusion: CDDA 99%
  Signature: 85B900FD3F45BC499D7B06B4694E9BC52047FA1B
FILE: 06 - Mastercard.flac
  Size: 28881519 Hash: 2C37B10065945A9FB54F6ED360769FD8 Accuracy: -m0
  Conclusion: CDDA 100%
  Signature: 536A77530939CF3788752091A18040E0C29DEF57
FILE: 05 - Repelish.flac
  Size: 22616327 Hash: E64B7381AD398C8F1B5023336DD33EC8 Accuracy: -m0
  Conclusion: CDDA 100%
  Signature: DB920631C0C5F5E7048E44CED91FE03ED87F90B8
FILE: 04 - Hexon Bogon.flac
  Size: 18237359 Hash: F2F600F06FC1095A1B79504244CCA289 Accuracy: -m0
  Conclusion: CDDA 100%
  Signature: 8C6CAE3C7A7BA22D8224098D4706623A50A93433
FILE: 03 - Remurdered.flac
  Size: 40912597 Hash: 0A37C8F5B1C0EA4A51FF0C6A29A3BEF3 Accuracy: -m0
  Conclusion: CDDA 100%
  Signature: 90D8D288799DB13D6F2227D9855DD05EBAFEA668
FILE: 02 - Simon Ferocious.flac
  Size: 31330874 Hash: 08012E14DEAADB0673462ECF0601076C Accuracy: -m0
  Conclusion: CDDA 100%
  Signature: 851156CE9CD81E77B2ED47E5645ED842A3B62537
FILE: 01 - Heard About You Last Night.flac
  Size: 33491800 Hash: 80BA555B2A61662A263AACE544321752 Accuracy: -m0
  Conclusion: CDDA 100%
  Signature: D81377B1755EE407C3CBD944F9424AA858798367
Код:
Код:
REM DISCID 770B800A
REM COMMENT "ExactAudioCopy v1.0b3"
PERFORMER "Mogwai"
TITLE "Rave Tapes"
FILE "01 - Heard About You Last Night.wav" WAVE
  TRACK 01 AUDIO
    TITLE "Heard About You Last Night"
    PERFORMER "Mogwai"
    INDEX 01 00:00:00
  TRACK 02 AUDIO
    TITLE "Simon Ferocious"
    PERFORMER "Mogwai"
    INDEX 00 05:23:21
FILE "02 - Simon Ferocious.wav" WAVE
    INDEX 01 00:00:00
  TRACK 03 AUDIO
    TITLE "Remurdered"
    PERFORMER "Mogwai"
    INDEX 00 04:47:59
FILE "03 - Remurdered.wav" WAVE
    INDEX 01 00:00:00
  TRACK 04 AUDIO
    TITLE "Hexon Bogon"
    PERFORMER "Mogwai"
    INDEX 00 06:24:59
FILE "04 - Hexon Bogon.wav" WAVE
    INDEX 01 00:00:00
  TRACK 05 AUDIO
    TITLE "Repelish"
    PERFORMER "Mogwai"
    INDEX 00 02:35:01
FILE "05 - Repelish.wav" WAVE
    INDEX 01 00:00:00
  TRACK 06 AUDIO
    TITLE "Mastercard"
    PERFORMER "Mogwai"
    INDEX 00 03:55:57
FILE "06 - Mastercard.wav" WAVE
    INDEX 01 00:00:00
  TRACK 07 AUDIO
    TITLE "Deesh"
    PERFORMER "Mogwai"
    INDEX 00 03:57:26
FILE "07 - Deesh.wav" WAVE
    INDEX 01 00:00:00
  TRACK 08 AUDIO
    TITLE "Blues Hour"
    PERFORMER "Mogwai"
    INDEX 00 05:32:63
FILE "08 - Blues Hour.wav" WAVE
    INDEX 01 00:00:00
  TRACK 09 AUDIO
    TITLE "No Medicine for Regret"
    PERFORMER "Mogwai"
    INDEX 00 06:16:59
FILE "09 - No Medicine for Regret.wav" WAVE
    INDEX 01 00:00:00
  TRACK 10 AUDIO
    TITLE "The Lord is Out of Control"
    PERFORMER "Mogwai"
    INDEX 00 05:38:73
FILE "10 - The Lord is Out of Control.wav" WAVE
    INDEX 01 00:00:00
Правила, инструкции, FAQ!!!
Торрент  Добавлен [16 мар 2014, 00:41] Скачать торрент Магнет ссылка
Скачать торрент
[ Размер 13.02 КБ / Просмотров 17 ]

Статус  
 
Размер  297.83 МБ
Приватный: Нет (DHT включён)
.torrent скачан  2
 


     Отправить личное сообщение
   
Страница 1 из 1
Показать сообщения за:  Поле сортировки  
Начать новую тему Ответить на тему


Сейчас этот форум просматривают: нет зарегистрированных пользователей и гости: 0


Вы не можете начинать темы
Вы не можете отвечать на сообщения
Вы не можете редактировать свои сообщения
Вы не можете удалять свои сообщения
Вы не можете добавлять вложения

Перейти:  
cron
cron