Начать новую тему Ответить на тему
Статистика раздачи
Размер: 267.32 МБ | Добавлен: 16 мар 2014, 00:49 | Скачали: 5
Сидеров: 3  [0 байт/сек]    Личеров: 1  [0 байт/сек]
Пред. тема | След. тема 

Автор
Сообщение

СообщениеДобавлено: 16 мар 2014, 00:49 

Ответить с цитатой 

Mogwai - Les Revenants (2013)

Год: 2013
Жанр: Post-Rock
Лейбл: Rock Action Records
Каталог #: ROCKACT74CD
Продолжительность: 00:50:11

Кодек: FLAC
Битрейт: Lossless
Тип рипа: tracks+.cue

Треклист:
01. Hungry Face (02:24)
02. Jaguar (02:18)
03. The Huts (04:02)
04. Kill Jester (03:29)
05. This Messiah Needs Watching (04:37)
06. Whisky Time (01:39)
07. Special N (03:49)
08. Relative Hysteria (03:40)
09. Fridge Magic (03:22)
10. Portugal (04:01)
11. Eagle Tax (03:21)
12. Modern (02:48)
13. What Are They Doing In Heaven Today? (05:52)
14. Wizard Motor (04:41)


Код:
Код:
Exact Audio Copy V1.0 beta 3 from 29. August 2011

EAC extraction logfile from 25. February 2013, 15:28

Mogwai / Les Revenants

Used drive  : HL-DT-STDVD+-RW GA31N   Adapter: 0  ID: 1

Read mode               : Secure
Utilize accurate stream : Yes
Defeat audio cache      : Yes
Make use of C2 pointers : No

Read offset correction                      : 103
Overread into Lead-In and Lead-Out          : No
Fill up missing offset samples with silence : Yes
Delete leading and trailing silent blocks   : No
Null samples used in CRC calculations       : Yes
Used interface                              : Native Win32 interface for Win NT & 2000
Gap handling                                : Appended to previous track

Used output format              : User Defined Encoder
Selected bitrate                : 1024 kBit/s
Quality                         : High
Add ID3 tag                     : No
Command line compressor         : C:\Program Files (x86)\Exact Audio Copy\Flac\flac.exe
Additional command line options : -8 -V -T "ARTIST=%artist%" -T "TITLE=%title%" -T "ALBUM=%albumtitle%" -T "DATE=%year%" -T "TRACKNUMBER=%tracknr%" -T "GENRE=%genre%" -T "PERFORMER=%albuminterpret%" -T "COMPOSER=%composer%" %haslyrics%--tag-from-file=LYRICS="%lyricsfile%"%haslyrics% -T "ALBUMARTIST=%albumartist%" -T "DISCNUMBER=%cdnumber%" -T "TOTALDISCS=%totalcds%" -T "TOTALTRACKS=%numtracks%" -T "COMMENT=%comment%" %source% -o %dest%

TOC of the extracted CD

     Track |   Start  |  Length  | Start sector | End sector
    ---------------------------------------------------------
        1  |  0:00.00 |  2:24.52 |         0    |    10851
        2  |  2:24.52 |  2:18.72 |     10852    |    21273
        3  |  4:43.49 |  4:02.24 |     21274    |    39447
        4  |  8:45.73 |  3:29.64 |     39448    |    55186
        5  | 12:15.62 |  4:37.03 |     55187    |    75964
        6  | 16:52.65 |  1:39.70 |     75965    |    83459
        7  | 18:32.60 |  3:49.05 |     83460    |   100639
        8  | 22:21.65 |  3:40.62 |    100640    |   117201
        9  | 26:02.52 |  3:22.70 |    117202    |   132421
       10  | 29:25.47 |  4:01.39 |    132422    |   150535
       11  | 33:27.11 |  3:21.68 |    150536    |   165678
       12  | 36:49.04 |  2:48.71 |    165679    |   178349
       13  | 39:38.00 |  5:52.24 |    178350    |   204773
       14  | 45:30.24 |  4:41.09 |    204774    |   225857

Track  1

     Filename C:\EAC\01 Hungry Face.wav

     Pre-gap length  0:00:02.00

     Peak level 89.1 %
     Extraction speed 1.1 X
     Track quality 100.0 %
     Test CRC EAD34826
     Copy CRC EAD34826
     Track not present in AccurateRip database
     Copy OK

Track  2

     Filename C:\EAC\02 Jaguar.wav

     Pre-gap length  0:00:01.97

     Peak level 89.5 %
     Extraction speed 1.2 X
     Track quality 100.0 %
     Test CRC 118C1942
     Copy CRC 118C1942
     Track not present in AccurateRip database
     Copy OK

Track  3

     Filename C:\EAC\03 The Huts.wav

     Pre-gap length  0:00:00.52

     Peak level 87.6 %
     Extraction speed 1.2 X
     Track quality 99.9 %
     Test CRC FC27000A
     Copy CRC FC27000A
     Track not present in AccurateRip database
     Copy OK

Track  4

     Filename C:\EAC\04 Kill Jester.wav

     Pre-gap length  0:00:01.46

     Peak level 97.7 %
     Extraction speed 1.5 X
     Track quality 100.0 %
     Test CRC 4CC49391
     Copy CRC 4CC49391
     Track not present in AccurateRip database
     Copy OK

Track  5

     Filename C:\EAC\05 This Messiah Needs Watching.wav

     Pre-gap length  0:00:01.26

     Peak level 77.4 %
     Extraction speed 1.6 X
     Track quality 100.0 %
     Test CRC 15F65E35
     Copy CRC 15F65E35
     Track not present in AccurateRip database
     Copy OK

Track  6

     Filename C:\EAC\06 Whisky Time.wav

     Pre-gap length  0:00:01.92

     Peak level 69.0 %
     Extraction speed 1.1 X
     Track quality 99.8 %
     Test CRC 3698D875
     Copy CRC 3698D875
     Track not present in AccurateRip database
     Copy OK

Track  7

     Filename C:\EAC\07 Special N.wav

     Pre-gap length  0:00:02.52

     Peak level 98.0 %
     Extraction speed 1.5 X
     Track quality 99.9 %
     Test CRC A6D4FB28
     Copy CRC A6D4FB28
     Track not present in AccurateRip database
     Copy OK

Track  8

     Filename C:\EAC\08 Relative Hysteria.wav

     Pre-gap length  0:00:01.92

     Peak level 93.4 %
     Extraction speed 1.8 X
     Track quality 100.0 %
     Test CRC F54BA613
     Copy CRC F54BA613
     Track not present in AccurateRip database
     Copy OK

Track  9

     Filename C:\EAC\09 Fridge Magic.wav

     Pre-gap length  0:00:00.85

     Peak level 94.9 %
     Extraction speed 1.9 X
     Track quality 100.0 %
     Test CRC 57E711E5
     Copy CRC 57E711E5
     Track not present in AccurateRip database
     Copy OK

Track 10

     Filename C:\EAC\10 Portugal.wav

     Peak level 97.2 %
     Extraction speed 2.0 X
     Track quality 100.0 %
     Test CRC E137A1C7
     Copy CRC E137A1C7
     Track not present in AccurateRip database
     Copy OK

Track 11

     Filename C:\EAC\11 Eagle Tax.wav

     Pre-gap length  0:00:01.54

     Peak level 72.0 %
     Extraction speed 2.0 X
     Track quality 100.0 %
     Test CRC 8BA03E88
     Copy CRC 8BA03E88
     Track not present in AccurateRip database
     Copy OK

Track 12

     Filename C:\EAC\12 Modern.wav

     Pre-gap length  0:00:02.97

     Peak level 96.0 %
     Extraction speed 1.7 X
     Track quality 99.9 %
     Test CRC 65ACFC58
     Copy CRC 65ACFC58
     Track not present in AccurateRip database
     Copy OK

Track 13

     Filename C:\EAC\13 What Are They Doing In Heaven Today.wav

     Pre-gap length  0:00:02.77

     Peak level 74.9 %
     Extraction speed 2.3 X
     Track quality 100.0 %
     Test CRC 95F5906B
     Copy CRC 95F5906B
     Track not present in AccurateRip database
     Copy OK

Track 14

     Filename C:\EAC\14 Wizard Motor.wav

     Pre-gap length  0:00:00.98

     Peak level 100.0 %
     Extraction speed 2.4 X
     Track quality 100.0 %
     Test CRC BB6F42C0
     Copy CRC BB6F42C0
     Track not present in AccurateRip database
     Copy OK

None of the tracks are present in the AccurateRip database

No errors occurred

End of status report

==== Log checksum C341FB484FC8C529A91EB4043117C3CBEBA0E7805E9F3E43E7C14FB37B1CBFCF ====
Код:
Код:
-----------------------

DON'T MODIFY THIS FILE

-----------------------

PERFORMER: auCDtect Task Manager, ver. 1.6.0 RC1 build 1.6.0.1
Copyright (c) 2008-2010 y-soft. All rights reserved
http:/y-soft.org

ANALYZER: auCDtect: CD records authenticity detector, version 0.8.2
Copyright (c) 2004 Oleg Berngardt. All rights reserved.
Copyright (c) 2004 Alexander Djourik. All rights reserved.

FILE: 14 - Wizard Motor.flac
  Size: 29536574 Hash: D46CBF6D323B14DB4D8B5EB1D87B330C Accuracy: -m0
  Conclusion: CDDA 100%
  Signature: CBF1FACB4F17CCE937F47742EED090A84C9C56AE
FILE: 13 - What Are They Doing In Heaven Today.flac
  Size: 37016164 Hash: C3B299BA9C77A4BE244105BA2D63A434 Accuracy: -m0
  Conclusion: CDDA 100%
  Signature: ABA9E93DAF1E717304538B07C5D898940DE3D5C6
FILE: 12 - Modern.flac
  Size: 15438618 Hash: ADAA2C73B3D13F9FD2AAA46C4B81DAB8 Accuracy: -m0
  Conclusion: CDDA 100%
  Signature: C5DA233C03E7226764A3C2B336F107B2A0D64875
FILE: 11 - Eagle Tax.flac
  Size: 18189386 Hash: 791B8AFCBC9DBBB9C0EE70D4227503D0 Accuracy: -m0
  Conclusion: CDDA 99%
  Signature: 14D2DC1768DE607C351A14D8F5B114B33D769FA8
FILE: 10 - Portugal.flac
  Size: 24655167 Hash: B8964813E13015B10A18D9D2C4E49BDC Accuracy: -m0
  Conclusion: CDDA 99%
  Signature: 4096CB1943CDF5BF37DD8DE651B67A57259EE1E6
FILE: 09 - Fridge Magic.flac
  Size: 16044938 Hash: 044E19DF7F23A3BFCFBD430D04D7FB40 Accuracy: -m0
  Conclusion: CDDA 99%
  Signature: 2571ADD7DB82DE822BE6D2BF43746336E2264626
FILE: 08 - Relative Hysteria.flac
  Size: 19433132 Hash: 3C47059B4F919F4EC30BE12A258CF081 Accuracy: -m0
  Conclusion: CDDA 100%
  Signature: FBD442555C7AF12ACDD3B9B42490EAA5269A826F
FILE: 07 - Special N.flac
  Size: 25106752 Hash: 7DB421AC5D1BA2E6D6A2D399F959D3DE Accuracy: -m0
  Conclusion: CDDA 100%
  Signature: 9164FC357E6278198ECAC116B54E5B40D92C9AD2
FILE: 06 - Whisky Time.flac
  Size: 5990406 Hash: 3B7D0A068D5CB66825DA5764455D65C9 Accuracy: -m0
  Conclusion: CDDA 62%
  Signature: 900500153880F260DF0176392B205F07917B0618
FILE: 05 - This Messiah Needs Watching.flac
  Size: 25010099 Hash: 422267D715F679AD1D0486D8CA9AE38C Accuracy: -m0
  Conclusion: CDDA 100%
  Signature: FA7F04E244A8E620A0B0DCF6EF66114AFD3227EF
FILE: 04 - Kill Jester.flac
  Size: 20269068 Hash: 1D202AA2F1DA79E0E2B8200B4CF42BEA Accuracy: -m0
  Conclusion: CDDA 100%
  Signature: 1CB2BD8B7DE55EF17177CAA1B5CE80339834C5A9
FILE: 03 - The Huts.flac
  Size: 18742501 Hash: F1B1FE5B73FBCE22C329A7BA3C793072 Accuracy: -m0
  Conclusion: CDDA 87%
  Signature: D4D75B8B12943E49D03690F38C9669094D5B4930
FILE: 02 - Jaguar.flac
  Size: 10090460 Hash: F13B01D083DAEF772009AF72B38C83C0 Accuracy: -m0
  Conclusion: CDDA 100%
  Signature: AC92CE909BF95AC278D6C1CCAFA437B06BF7C5D8
FILE: 01 - Hungry Face.flac
  Size: 13962164 Hash: 2906250B1267BBEB0397C7977181AC8A Accuracy: -m0
  Conclusion: CDDA 100%
  Signature: F909EE4EA1603D564A798BAFF9D1441C85645FE0
Код:
Код:
REM GENRE Indie
REM DATE 2013
PERFORMER "Mogwai"
TITLE "Les Revenants"
FILE "01 - Hungry Face.flac" WAVE
  TRACK 01 AUDIO
    TITLE "Hungry Face"
    PERFORMER "Mogwai"
    INDEX 01 00:00:00
FILE "02 - Jaguar.flac" WAVE
  TRACK 02 AUDIO
    TITLE "Jaguar"
    PERFORMER "Mogwai"
    INDEX 01 00:00:00
FILE "03 - The Huts.flac" WAVE
  TRACK 03 AUDIO
    TITLE "The Huts"
    PERFORMER "Mogwai"
    INDEX 01 00:00:00
FILE "04 - Kill Jester.flac" WAVE
  TRACK 04 AUDIO
    TITLE "Kill Jester"
    PERFORMER "Mogwai"
    INDEX 01 00:00:00
FILE "05 - This Messiah Needs Watching.flac" WAVE
  TRACK 05 AUDIO
    TITLE "This Messiah Needs Watching"
    PERFORMER "Mogwai"
    INDEX 01 00:00:00
FILE "06 - Whisky Time.flac" WAVE
  TRACK 06 AUDIO
    TITLE "Whisky Time"
    PERFORMER "Mogwai"
    INDEX 01 00:00:00
FILE "07 - Special N.flac" WAVE
  TRACK 07 AUDIO
    TITLE "Special N"
    PERFORMER "Mogwai"
    INDEX 01 00:00:00
FILE "08 - Relative Hysteria.flac" WAVE
  TRACK 08 AUDIO
    TITLE "Relative Hysteria"
    PERFORMER "Mogwai"
    INDEX 01 00:00:00
FILE "09 - Fridge Magic.flac" WAVE
  TRACK 09 AUDIO
    TITLE "Fridge Magic"
    PERFORMER "Mogwai"
    INDEX 01 00:00:00
FILE "10 - Portugal.flac" WAVE
  TRACK 10 AUDIO
    TITLE "Portugal"
    PERFORMER "Mogwai"
    INDEX 01 00:00:00
FILE "11 - Eagle Tax.flac" WAVE
  TRACK 11 AUDIO
    TITLE "Eagle Tax"
    PERFORMER "Mogwai"
    INDEX 01 00:00:00
FILE "12 - Modern.flac" WAVE
  TRACK 12 AUDIO
    TITLE "Modern"
    PERFORMER "Mogwai"
    INDEX 01 00:00:00
FILE "13 - What Are They Doing In Heaven Today.flac" WAVE
  TRACK 13 AUDIO
    TITLE "What Are They Doing In Heaven Today?"
    PERFORMER "Mogwai"
    INDEX 01 00:00:00
FILE "14 - Wizard Motor.flac" WAVE
  TRACK 14 AUDIO
    TITLE "Wizard Motor"
    PERFORMER "Mogwai"
    INDEX 01 00:00:00
Правила, инструкции, FAQ!!!
Торрент  Добавлен [16 мар 2014, 00:49] Скачать торрент Магнет ссылка
Скачать торрент
[ Размер 12.03 КБ / Просмотров 28 ]

Статус  
 
Размер  267.32 МБ
Приватный: Нет (DHT включён)
.torrent скачан  5
 


     Отправить личное сообщение
   
Страница 1 из 1
Показать сообщения за:  Поле сортировки  
Начать новую тему Ответить на тему


Сейчас этот форум просматривают: нет зарегистрированных пользователей и гости: 0


Вы не можете начинать темы
Вы не можете отвечать на сообщения
Вы не можете редактировать свои сообщения
Вы не можете удалять свои сообщения
Вы не можете добавлять вложения

Перейти:  
cron
cron