Начать новую тему Ответить на тему
Статистика раздачи
Размер: 1.82 ГБ | Добавлен: 24 авг 2016, 14:16 | Скачали: 2
Сидеров: 11  [0 байт/сек]    Личеров: 9  [0 байт/сек]
Пред. тема | След. тема 

Автор
Сообщение

СообщениеДобавлено: 24 авг 2016, 14:16 

Ответить с цитатой 

Phillip Walker Band with George"Harmonica" Smith / The Blues Show!Live At Pit Inn (Japan)

Жанр:Modern Electric Blues,Regional Blues,Texas Blues
Носитель:LP
Год выпуска: 1980
Лейбл: Yupiteru YR23-4002
Страна-производитель:Japan
Аудио кодек: FLAC
Тип рипа: image+.cue
Формат записи: 32/192
Формат раздачи: 24/192
Продолжительность: 00:46:49
Phillip Walker Band with George"Harmonica" Smith

A1 - Hello My Darling 2:47
feat: George "Harmonica" Smith
A2 - Laughing and Clowing [S. Cooke / Sam Cooke]6:30
feat: George "Harmonica" Smith
A3 - Yonders Wall [Elmore James] 5:11
feat: George "Harmonica" Smith / Willie Smith
A4 - That's All Right [James A. Lane / Jimmy Rogers]8:05
feat: George "Harmonica" Smith / Willie Mae Ford Smith

B1 - Blues Blowin' Up 3:34
feat: George "Harmonica" Smith
B2 - Mississippi River Blues [Jimmy Rogers]6:34
feat: George "Harmonica" Smith
B3 - Strange Things Happening [Percy Mayfield]6:22
feat: George "Harmonica" Smith
B4 - Johnny B. Goode [Chuck Berry]2:46
feat: George "Harmonica" Smith
B5 - Hello Central[Lightnin' Hopkins / Sam Hopkins / Huddie Ledbetter]5:00
feat: George "Harmonica" Smith
Источник оцифровки: автором раздачи
Код класса состояния винила: EX+
Устройство воспроизведения: MICRO MR-711
Головка звукоснимателя: Micro Seki LM-5
Предварительный усилитель:NAD PP 2Im
АЦП: Xonar STX
Программа-оцифровщик: Adobe Audition CS6
Обработка: помыл и закинул

NO
Credits:
Mitsuyoshi Azuma - Guitar
George "Harmonica" Smith - Harmonica, Primary Artist, Vocals
Willie Mae Ford Smith - Primary Artist
Johnny Tucker - Drums
Dennis Walker - Bass
Phillip Walker - Composer, Guitar, Primary Artist, Vocals
Junshi Yamagishi - Guest Artist, Guitar
Hideaki Nunomura - Cover Design
Kazumi Okuma - Cover Photo
Engineer - Shinichi Kikuchi
Director - Masahiko Yashida,Kenji Naruoka
Produced by Yupiteru Record
Note:
Recorded at Roppongi Pit Inn in Tokyo, Japan (November 28, 1979)
REM GENRE Modern Electric Blues,Regional Blues,Texas Blues
REM DATE 1980
REM atamay_VINYLRIP
REM Yupiteru YR23-4002, Japan
REM Produced by Yupiteru Record
REM Engineer - Shinichi Kikuchi
REM Director - Masahiko Yashida,Kenji Naruoka
PERFORMER "Phillip Walker Band with George Harmonica Smith"
TITLE "The Blues Show!Live At Pit Inn"
FILE "1_The Blues Show!Live At Pit Inn.flac" WAVE
TRACK 01 AUDIO
TITLE "Hello My Darling"
PERFORMER "Phillip Walker Band with George Harmonica Smith"
INDEX 01 00:00:00
TRACK 02 AUDIO
TITLE "Laughing and Clowing"
PERFORMER "Phillip Walker Band with George Harmonica Smith"
INDEX 01 02:52:25
TRACK 03 AUDIO
TITLE "Yonders Wall"
PERFORMER "Phillip Walker Band with George Harmonica Smith"
INDEX 01 09:09:55
TRACK 04 AUDIO
TITLE "That's All Right"
PERFORMER "Phillip Walker Band with George Harmonica Smith"
INDEX 01 14:18:44
FILE "2_The Blues Show!Live At Pit Inn.flac" WAVE
TRACK 05 AUDIO
TITLE "Blues Blowin' Up"
PERFORMER "Phillip Walker Band with George Harmonica Smith"
INDEX 01 00:00:00
TRACK 06 AUDIO
TITLE "Mississippi River Blues"
PERFORMER "Phillip Walker Band with George Harmonica Smith"
INDEX 01 03:33:55
TRACK 07 AUDIO
TITLE "Strange Things Happening"
PERFORMER "Phillip Walker Band with George Harmonica Smith"
INDEX 01 10:10:73
TRACK 08 AUDIO
TITLE "Johnny B. Goode"
PERFORMER "Phillip Walker Band with George Harmonica Smith"
INDEX 01 16:29:64
TRACK 09 AUDIO
TITLE "Hello Central"
PERFORMER "Phillip Walker Band with George Harmonica Smith"
INDEX 01 19:16:48
Правила, инструкции, FAQ!!!
Торрент  Добавлен [24 авг 2016, 14:16] Скачать торрент Магнет ссылка
Скачать торрент
[ Размер 19.14 КБ / Просмотров 21 ]

Статус
Проверен 
 
Размер  1.82 ГБ
Приватный: Нет (DHT включён)
.torrent скачан  2
 


     Отправить личное сообщение
   
Страница 1 из 1
Показать сообщения за:  Поле сортировки  
Начать новую тему Ответить на тему


Сейчас этот форум просматривают: нет зарегистрированных пользователей и гости: 0


Вы не можете начинать темы
Вы не можете отвечать на сообщения
Вы не можете редактировать свои сообщения
Вы не можете удалять свои сообщения
Вы не можете добавлять вложения

Перейти:  
cron
cron