Начать новую тему Ответить на тему
Статистика раздачи
Размер: 221.67 МБ | Добавлен: 16 мар 2014, 00:01 | Скачали: 0
Сидеров: 1  [0 байт/сек]    Личеров: 1  [0 байт/сек]
Пред. тема | След. тема 

Автор
Сообщение

СообщениеДобавлено: 16 мар 2014, 00:01 

Ответить с цитатой 

Miller Anderson - Bright City (1971) Reissue 2004

Жанр: Rock/Blues Rock
Год: 1971
Страна: UK
Released: 2004/Europe
Label: Wahalla
Catalog#: WH 90321
Аудио кодек: FLAC
Тип рипа: tracks+.cue
Битрейт аудио: lossless
Продолжительность: 00:36:08
Автор рипа: Gera1957
Scans: в раздаче
Треклист:
01. Alice Mercy (To Whom It May Concern) (6:47)
02. The Age Of Progress (3:29)
03. Nothing In this World (4:18)
04. Bright City (3:07)
05. Grey Broken Morning (4:28)
06. High Tide, High Water (7:56)
07. Shadows 'Cross My Wall (6:02)

Сольник чудесного шотландского гитариста и вокалиста, Миллера Андерсона. Имя, почти неизвестное "широкому кругу", что удивительно, учитывая потрясающий послужной список, который включает в себя целый ряд известных и статусных коллективов, в числе которых Spencer Davis Group и Savoy Brown.
Миллер родился в шотландском Хьюстоне в 1945 году и в возрасте 19 лет смело отправился покорять Лондон со своей группой The Profile. После записи нескольких синглов парня пригласили в Keef Hartley Band, где он очень скоро стал одним из лидеров и проработал в течение трех лет, успев зарекомендовать себя агрессивным гитаристом и классным мелодистом, с немалым успехом отыграв в Вудстоке. В 1971 году Миллер записал первый сольный проект, Bright City. В числе тех, кто помогал ему в записи альбома, были Гэри Тейн, хорошо известный нам по последующей работе с Uriah Heep и Линн Добсон из Manfred Mann.
Хорошая работа с разнообразной - иногда мощной и резкой, иногда очень лиричной гитарой Миллера. Думаю, что именно вот такое умение варьировать стиль позволило Миллеру быть составной и важной частью самых разных команд - после записи этого альбома он присоединился к Savoy Brown, позже сотрудничал с фолковым Донованом, в 1976 стал частью последней версии глэмовых T.Rex и Болан был очень доволен сотрудничеством с ним, но - увы, через год сам Марк погиб и группа распалась. После этого Миллер успешно работал в хардовой Mountain, с Лесли Уэстом и Корки Лейнгом, затем присоединился к Spencer Davis Group.
Но и на этом славная и яркая биография не завершилась - в девяностых гитарист записывает вместе с Лордом "Pictured Within", а в 2000 принимает участие в проекте Пёрпл "Live at the Royal Albert Hall", после чего записывает еще ряд альбомов с Лордом и Пейсом и несколько новых сольных проектов! Более чем славный путь не самого пафосного и знаменитого, но честного труженика рок-н-ролла.

Credits
- Arranged By [Strings] – Junior Campbell
- Bass Guitar – Gary Thain
- Drums – Eric Dillon
- Engineer – Roy Thomas Baker
- Flugelhorn – Harrold Beckett
- Flute – Lyn Dobson
- Guitar – Neil Hubbard (tracks: 1, 6.)
- Organ, Piano – Peter Dines
- Organ, Piano, Harpsichord, Congas – Mick Weaver
- Photography, Artwork By [Design] – Richard Sacks With Image Art
- Producer [For Gruggy Woof Productions] – Neil Slaven
- Vocals, Acoustic, Electric Guitars, Written-By – Miller Anderson
Код:
Код:
Отчёт EAC об извлечении, выполненном 10. октября 2010, 20:18 для диска:
Anderson, Miller / Bright City

Дисковод: Optiarc DVD RW AD-7203A   Adapter: 1  ID: 0
Режим чтения: Достоверный (C2: нет, Точный поток: да, Отключение кэша: да)
Коррекция смещения при чтении: 48
Способность читать области Lead-in и Lead-out : Нет

Выходной формат: C:\Program Files\FLAC\flac.exe   (Пользовательский кодировщик)
                     128 kBit/s
                     Дополнительные параметры: -8 -V -T "ARTIST=%a" -T "TITLE=%t" -T "ALBUM=%g" -T "DATE=%y" -T "TRACKNUMBER=%n" -T "GENRE=%m" -T "COMMENT=EAC FLAC -8" %s

Другие параметры:
    Заполнение пропущенных сэмплов тишиной : Да
    Удаление блоков с тишиной в начале и конце : Нет
    Встроенный Win32-интерфейс для Win NT/2000

Трек  1
     Имя файла C:\EAC\01.Anderson, Miller-Alice Mercy (To Whom It May Concern).wav

     Длина предзазора  0:00:02.00

     Пиковый уровень 98.4 %
     Качество трека 99.9 %
     CRC теста 74EEC6E6
     CRC копии 74EEC6E6
     Копирование... OK

Трек  2
     Имя файла C:\EAC\02.Anderson, Miller-The Age Of Progress.wav

     Длина предзазора  0:00:02.53

     Пиковый уровень 98.4 %
     Качество трека 100.0 %
     CRC теста 2B743F19
     CRC копии 2B743F19
     Копирование... OK

Трек  3
     Имя файла C:\EAC\03.Anderson, Miller-Nothing In this World.wav

     Длина предзазора  0:00:02.32

     Пиковый уровень 98.4 %
     Качество трека 100.0 %
     CRC теста EA83682F
     CRC копии EA83682F
     Копирование... OK

Трек  4
     Имя файла C:\EAC\04.Anderson, Miller-Bright City.wav

     Длина предзазора  0:00:02.90

     Пиковый уровень 89.5 %
     Качество трека 100.0 %
     CRC теста 3CCA4C61
     CRC копии 3CCA4C61
     Копирование... OK

Трек  5
     Имя файла C:\EAC\05.Anderson, Miller-Grey Broken Morning.wav

     Длина предзазора  0:00:02.54

     Пиковый уровень 98.4 %
     Качество трека 100.0 %
     CRC теста C7F520EC
     CRC копии C7F520EC
     Копирование... OK

Трек  6
     Имя файла C:\EAC\06.Anderson, Miller-High Tide, High Water.wav

     Длина предзазора  0:00:02.50

     Пиковый уровень 98.4 %
     Качество трека 100.0 %
     CRC теста CBFF3C79
     CRC копии CBFF3C79
     Копирование... OK

Трек  7
     Имя файла C:\EAC\07.Anderson, Miller-Shadows 'Cross My Wall.wav

     Длина предзазора  0:00:02.74

     Пиковый уровень 79.8 %
     Качество трека 99.9 %
     CRC теста 75372791
     CRC копии 75372791
     Копирование... OK

Ошибок не произошло

Конец отчёта
Код:
Код:
-----------------------

DON'T MODIFY THIS FILE

-----------------------

PERFORMER: auCDtect Task Manager, ver. 1.6.0 RC1 build 1.6.0.1
Copyright (c) 2008-2010 y-soft. All rights reserved
http:/y-soft.org

ANALYZER: auCDtect: CD records authenticity detector, version 0.8.2
Copyright (c) 2004 Oleg Berngardt. All rights reserved.
Copyright (c) 2004 Alexander Djourik. All rights reserved.

FILE: 07.Anderson, Miller-Shadows 'Cross My Wall.flac
  Size: 33100971 Hash: 0D767FCEBC259236BAEE82574843EEAB Accuracy: -m0
  Conclusion: CDDA 100%
  Signature: 89F2164F7059E1328B889C73D3499472807C7181
FILE: 06.Anderson, Miller-High Tide, High Water.flac
  Size: 52945678 Hash: 06AE480E6A100F8E8B8E08E08C2A5D7B Accuracy: -m0
  Conclusion: CDDA 100%
  Signature: C81E32E46F51ED9D5208E120182AB3C79D6D54ED
FILE: 05.Anderson, Miller-Grey Broken Morning.flac
  Size: 28086998 Hash: C509D39B51E899CDC218AAF3E510C021 Accuracy: -m0
  Conclusion: CDDA 100%
  Signature: 735BD0CE8CAF30B3ED15C90B22BC195CEBBDA0C1
FILE: 04.Anderson, Miller-Bright City.flac
  Size: 17159753 Hash: A1034C7E5B5EC5560FF3BEDBE15E8295 Accuracy: -m0
  Conclusion: CDDA 99%
  Signature: 0EF0398F5C2F23BE51941811413F41958D35F2E9
FILE: 03.Anderson, Miller-Nothing In this World.flac
  Size: 30238598 Hash: 5E656E0A74036511E3E1809E2FDE1124 Accuracy: -m0
  Conclusion: CDDA 100%
  Signature: 7C6714A7EBAB6D7DFC13B5CDDAE6D21653F3E120
FILE: 02.Anderson, Miller-The Age Of Progress.flac
  Size: 22157160 Hash: E8FDD2983F16AFE0A94B1FF1842E86BA Accuracy: -m0
  Conclusion: CDDA 100%
  Signature: CC97CBAECBA69B758FE155E341F91B9AEE535A30
FILE: 01.Anderson, Miller-Alice Mercy (To Whom It May Concern).flac
  Size: 42245303 Hash: 16916CEFC5DDB450A12F85FC7E333B82 Accuracy: -m0
  Conclusion: CDDA 100%
  Signature: EA9687414F3C8E066A6880E173D20E504F6B3DCF
Код:
Код:
REM GENRE Blues
REM DATE 1971
REM DISCID 55087707
REM COMMENT "ExactAudioCopy v0.95b3"
PERFORMER "Anderson, Miller"
TITLE "Bright City"
FILE "01.Anderson, Miller-Alice Mercy (To Whom It May Concern).wav" WAVE
  TRACK 01 AUDIO
    TITLE "Alice Mercy (To Whom It May Concern)"
    PERFORMER "Anderson, Miller"
    INDEX 01 00:00:00
  TRACK 02 AUDIO
    TITLE "The Age Of Progress"
    PERFORMER "Anderson, Miller"
    INDEX 00 06:44:40
FILE "02.Anderson, Miller-The Age Of Progress.wav" WAVE
    INDEX 01 00:00:00
  TRACK 03 AUDIO
    TITLE "Nothing In this World"
    PERFORMER "Anderson, Miller"
    INDEX 00 03:27:04
FILE "03.Anderson, Miller-Nothing In this World.wav" WAVE
    INDEX 01 00:00:00
  TRACK 04 AUDIO
    TITLE "Bright City"
    PERFORMER "Anderson, Miller"
    INDEX 00 04:14:70
FILE "04.Anderson, Miller-Bright City.wav" WAVE
    INDEX 01 00:00:00
  TRACK 05 AUDIO
    TITLE "Grey Broken Morning"
    PERFORMER "Anderson, Miller"
    INDEX 00 03:04:40
FILE "05.Anderson, Miller-Grey Broken Morning.wav" WAVE
    INDEX 01 00:00:00
  TRACK 06 AUDIO
    TITLE "High Tide, High Water"
    PERFORMER "Anderson, Miller"
    INDEX 00 04:25:73
FILE "06.Anderson, Miller-High Tide, High Water.wav" WAVE
    INDEX 01 00:00:00
  TRACK 07 AUDIO
    TITLE "Shadows 'Cross My Wall"
    PERFORMER "Anderson, Miller"
    INDEX 00 07:53:09
FILE "07.Anderson, Miller-Shadows 'Cross My Wall.wav" WAVE
    INDEX 01 00:00:00
Правила, инструкции, FAQ!!!
Торрент  Добавлен [16 мар 2014, 00:01] Скачать торрент Магнет ссылка
Скачать торрент
[ Размер 19.23 КБ / Просмотров 33 ]

Статус  
 
Размер  221.67 МБ
Приватный: Нет (DHT включён)
.torrent скачан  0
 


     Отправить личное сообщение
   
Страница 1 из 1
Показать сообщения за:  Поле сортировки  
Начать новую тему Ответить на тему


Сейчас этот форум просматривают: нет зарегистрированных пользователей и гости: 0


Вы не можете начинать темы
Вы не можете отвечать на сообщения
Вы не можете редактировать свои сообщения
Вы не можете удалять свои сообщения
Вы не можете добавлять вложения

Перейти:  
cron
cron