Начать новую тему Ответить на тему
Статистика раздачи
Размер: 303.67 МБ | Добавлен: 16 мар 2014, 00:52 | Скачали: 0
Сидеров: 1  [0 байт/сек]    Личеров: 0  [0 байт/сек]
Пред. тема | След. тема 

Автор
Сообщение

СообщениеДобавлено: 16 мар 2014, 00:52 

Ответить с цитатой 

Midnight to Twelve
- Midnight to Twelve


Год выпуска: 2008
Жанр: Alternative Rock
Продолжительность: 00:43:17
Тип издания: Альбом
Страна: США



Треклист:

01. How Bad
02. Future
03. Story
04. Burnin
05. Slam
06. Good Morning Again
07. Rhyme Or Reason
08. Contain It
09. Remembering
10. Too Much
11. Moment
12. King Of Spain


Код:
Код:
Exact Audio Copy V1.0 beta 3 from 29. August 2011

EAC extraction logfile from 22. May 2012, 21:02

Midnight To Twelve / Midnight To Twelve

Used drive  : MATSHITABD-MLT UJ240ES   Adapter: 0  ID: 1

Read mode               : Secure
Utilize accurate stream : Yes
Defeat audio cache      : Yes
Make use of C2 pointers : No

Read offset correction                      : 103
Overread into Lead-In and Lead-Out          : No
Fill up missing offset samples with silence : Yes
Delete leading and trailing silent blocks   : No
Null samples used in CRC calculations       : Yes
Used interface                              : Native Win32 interface for Win NT & 2000
Gap handling                                : Appended to previous track

Used output format              : User Defined Encoder
Selected bitrate                : 1024 kBit/s
Quality                         : High
Add ID3 tag                     : No
Command line compressor         : C:\Program Files (x86)\Exact Audio Copy\FLAC\FLAC.EXE
Additional command line options : -8 -V -T "ARTIST=%artist%" -T "TITLE=%title%" -T "ALBUM=%albumtitle%" -T "DATE=%year%" -T "TRACKNUMBER=%tracknr%" -T "GENRE=%genre%" -T "PERFORMER=%albuminterpret%" -T "COMPOSER=%composer%" %haslyrics%--tag-from-file=LYRICS="%lyricsfile%"%haslyrics% -T "ALBUMARTIST=%albumartist%" -T "DISCNUMBER=%cdnumber%" -T "TOTALDISCS=%totalcds%" -T "TOTALTRACKS=%numtracks%" -T "COMMENT=%comment%" %source% -o %dest%

TOC of the extracted CD

     Track |   Start  |  Length  | Start sector | End sector
    ---------------------------------------------------------
        1  |  0:00.00 |  3:35.38 |         0    |    16162
        2  |  3:35.38 |  4:13.69 |     16163    |    35206
        3  |  7:49.32 |  3:24.20 |     35207    |    50526
        4  | 11:13.52 |  2:37.08 |     50527    |    62309
        5  | 13:50.60 |  3:39.67 |     62310    |    78801
        6  | 17:30.52 |  4:11.36 |     78802    |    97662
        7  | 21:42.13 |  3:27.09 |     97663    |   113196
        8  | 25:09.22 |  3:26.21 |    113197    |   128667
        9  | 28:35.43 |  3:45.52 |    128668    |   145594
       10  | 32:21.20 |  3:20.00 |    145595    |   160594
       11  | 35:41.20 |  3:45.01 |    160595    |   177470
       12  | 39:26.21 |  3:50.60 |    177471    |   194780

Track  1

     Filename C:\Users\Nikolay\Desktop\01. How Bad.wav

     Pre-gap length  0:00:02.00

     Peak level 96.6 %
     Extraction speed 2.4 X
     Track quality 100.0 %
     Test CRC 206858E2
     Copy CRC 206858E2
     Track not present in AccurateRip database
     Copy OK

Track  2

     Filename C:\Users\Nikolay\Desktop\02. Future.wav

     Peak level 96.6 %
     Extraction speed 2.7 X
     Track quality 100.0 %
     Test CRC C142F865
     Copy CRC C142F865
     Track not present in AccurateRip database
     Copy OK

Track  3

     Filename C:\Users\Nikolay\Desktop\03. Story.wav

     Peak level 96.6 %
     Extraction speed 2.9 X
     Track quality 100.0 %
     Test CRC AAAC541C
     Copy CRC AAAC541C
     Track not present in AccurateRip database
     Copy OK

Track  4

     Filename C:\Users\Nikolay\Desktop\04. Burnin.wav

     Peak level 96.6 %
     Extraction speed 2.9 X
     Track quality 100.0 %
     Test CRC 299A82B9
     Copy CRC 299A82B9
     Track not present in AccurateRip database
     Copy OK

Track  5

     Filename C:\Users\Nikolay\Desktop\05. Slam.wav

     Peak level 96.6 %
     Extraction speed 3.2 X
     Track quality 100.0 %
     Test CRC E3C1ED19
     Copy CRC E3C1ED19
     Track not present in AccurateRip database
     Copy OK

Track  6

     Filename C:\Users\Nikolay\Desktop\06. Good Morning Again.wav

     Peak level 96.6 %
     Extraction speed 3.5 X
     Track quality 100.0 %
     Test CRC 829234DE
     Copy CRC 829234DE
     Track not present in AccurateRip database
     Copy OK

Track  7

     Filename C:\Users\Nikolay\Desktop\07. Rhyme Or Reason.wav

     Peak level 96.6 %
     Extraction speed 3.1 X
     Track quality 99.9 %
     Test CRC 7AECB21B
     Copy CRC 7AECB21B
     Track not present in AccurateRip database
     Copy OK

Track  8

     Filename C:\Users\Nikolay\Desktop\08. Contain It.wav

     Peak level 96.6 %
     Extraction speed 3.7 X
     Track quality 100.0 %
     Test CRC 5D05EAD8
     Copy CRC 5D05EAD8
     Track not present in AccurateRip database
     Copy OK

Track  9

     Filename C:\Users\Nikolay\Desktop\09. Remembering.wav

     Peak level 96.6 %
     Extraction speed 4.0 X
     Track quality 100.0 %
     Test CRC B5824591
     Copy CRC B5824591
     Track not present in AccurateRip database
     Copy OK

Track 10

     Filename C:\Users\Nikolay\Desktop\10. Too Much.wav

     Peak level 96.6 %
     Extraction speed 4.0 X
     Track quality 100.0 %
     Test CRC A8F805DB
     Copy CRC A8F805DB
     Track not present in AccurateRip database
     Copy OK

Track 11

     Filename C:\Users\Nikolay\Desktop\11. Moment.wav

     Peak level 96.6 %
     Extraction speed 4.3 X
     Track quality 100.0 %
     Test CRC 4D72ACC6
     Copy CRC 4D72ACC6
     Track not present in AccurateRip database
     Copy OK

Track 12

     Filename C:\Users\Nikolay\Desktop\12. King Of Spain.wav

     Peak level 100.0 %
     Extraction speed 4.4 X
     Track quality 100.0 %
     Test CRC 6F1A7E38
     Copy CRC 6F1A7E38
     Track not present in AccurateRip database
     Copy OK

None of the tracks are present in the AccurateRip database

No errors occurred

End of status report

==== Log checksum E2DAA8A82B9821B1FF151CDC64A88572C4A9F44248064C1F09DA13C1F505C070 ====

Код:
Код:
-----------------------

DON'T MODIFY THIS FILE

-----------------------

PERFORMER: auCDtect Task Manager, ver. 1.5.1RC6 build 1.5.1.7
Copyright (c) 2008-2010 y-soft. All rights reserved
http:/y-soft.org

ANALYZER: auCDtect: CD records authenticity detector, version 0.8.2
Copyright (c) 2004 Oleg Berngardt. All rights reserved.
Copyright (c) 2004 Alexander Djourik. All rights reserved.

FILE: 12. Midnight To Twelve - King Of Spain.flac
  Size: 27802717 Hash: 5957667B885351EC9858FE68D0997E8A Accuracy: -m0
  Conclusion: CDDA 100%
  Signature: 726F21E8EA53907AE613D5FEE41C74DF96F7167A
FILE: 11. Midnight To Twelve - Moment.flac
  Size: 26490579 Hash: 29149870716D074D820A9D747BA72F47 Accuracy: -m0
  Conclusion: CDDA 100%
  Signature: 70AD1304AFB9FFDF16F370AAF2A630B2BBC98C69
FILE: 10. Midnight To Twelve - Too Much.flac
  Size: 23947714 Hash: C2C59432C834AEB71B023579A807E7AB Accuracy: -m0
  Conclusion: CDDA 100%
  Signature: 18CE88916E1F8109941AD3396DC189AA3593C4CF
FILE: 09. Midnight To Twelve - Remembering.flac
  Size: 28565629 Hash: BEB62AEA8DCB1F140C6A28BE41AC4CF9 Accuracy: -m0
  Conclusion: CDDA 100%
  Signature: 63C9A87111654D444CE6616840D48623FD9C5AF1
FILE: 08. Midnight To Twelve - Contain It.flac
  Size: 25958971 Hash: E962D61AF504E7A08442D83E02CF9125 Accuracy: -m0
  Conclusion: CDDA 100%
  Signature: 5F57DFDFBE5E109DDE27280746F4F60E8D305118
FILE: 07. Midnight To Twelve - Rhyme Or Reason.flac
  Size: 25897780 Hash: 275D32DF00A5F2A31282A5ED39582B56 Accuracy: -m0
  Conclusion: CDDA 100%
  Signature: 4BCE25EC20AB05D9CA495D89306D83C8512DFEB9
FILE: 06. Midnight To Twelve - Good Morning Again.flac
  Size: 29119819 Hash: 346225E6392E52B696A333303CAB54AC Accuracy: -m0
  Conclusion: CDDA 100%
  Signature: 7BD8F41A26476B8E37616C3A75C8CA94E8EC3ECC
FILE: 05. Midnight To Twelve - Slam.flac
  Size: 26874260 Hash: ACC59B6CCEFF04E6662AD2068CE93118 Accuracy: -m0
  Conclusion: CDDA 100%
  Signature: 0A071C1044BCDD27E0A91A2757D6EB42A93B3F19
FILE: 04. Midnight To Twelve - Burnin.flac
  Size: 19732349 Hash: 00E97C042047A1356152EDD18A54E13B Accuracy: -m0
  Conclusion: CDDA 100%
  Signature: 67AF40CD43B958E9F089669B7E997A1C7E1B95A5
FILE: 03. Midnight To Twelve - Story.flac
  Size: 25701678 Hash: 8CDDFEC0B0B02F0A31CB5DC38B937275 Accuracy: -m0
  Conclusion: CDDA 100%
  Signature: 2D5E713EA4DC99FCCF0BED49D9591C57A9AF51C1
FILE: 02. Midnight To Twelve - Future.flac
  Size: 31718196 Hash: A74615460D759F76D259232F7B7757F9 Accuracy: -m0
  Conclusion: CDDA 100%
  Signature: F59E022556DCB30E26C020CDE06F602230CB8ABA
FILE: 01. Midnight To Twelve - How Bad.flac
  Size: 26374705 Hash: 49C31BCF86A8B2208EFADD515CB6DBEC Accuracy: -m0
  Conclusion: CDDA 100%
  Signature: 9820A77C31644B77794C0BD5211BC2F2298CDAE9

Тип рипа: Tracks+.cue
Аудиокодек: FLAC
Битрейт аудио: lossless
Правила, инструкции, FAQ!!!
Торрент  Добавлен [16 мар 2014, 00:52] Скачать торрент Магнет ссылка
Скачать торрент
[ Размер 13.61 КБ / Просмотров 16 ]

Статус  
 
Размер  303.67 МБ
Приватный: Нет (DHT включён)
.torrent скачан  0
 


     Отправить личное сообщение
   
Страница 1 из 1
Показать сообщения за:  Поле сортировки  
Начать новую тему Ответить на тему


Сейчас этот форум просматривают: нет зарегистрированных пользователей и гости: 0


Вы не можете начинать темы
Вы не можете отвечать на сообщения
Вы не можете редактировать свои сообщения
Вы не можете удалять свои сообщения
Вы не можете добавлять вложения

Перейти:  
cron
cron