Начать новую тему Ответить на тему
Статистика раздачи
Размер: 1.6 ГБ | Добавлен: 01 июл 2017, 08:41 | Скачали: 12
Сидеров: 69  [0 байт/сек]    Личеров: 22  [0 байт/сек]
Пред. тема | След. тема 

Автор
Сообщение

СообщениеДобавлено: 01 июл 2017, 08:41 

Ответить с цитатой 

Michael Jackson
Dangerous

Год издания/переиздания диска: 1991/2014
Жанр: R&B, Pop, Rock, New Jack Swing
Издатель (лейбл): Epic / Legacy
Продолжительность: 01:17:05
Наличие сканов: Sleeve


01. Jam (5:40)
02. Why You Wanna Trip on Me (5:25)
03. In the Closet (6:32)
04. She Drives Me Wild (3:42)
05. Remember the Time (4:00)
06. Can't Let Her Get Away (5:02)
07. Heal the World (6:24)
08. Black or White (4:16)
09. Who Is It (6:35)
10. Give in to Me (5:30)
11. Will You Be There (7:39)
12. Keep the Faith (5:58)
13. Gone Too Soon (3:22)
14. Dangerous (6:59)
Контейнер: FLAC (*.flac)
Тип рипа: tracks
Разрядность: 24bit / 96kHz
Количество каналов: 2.0
Код:
foobar2000 1.2.2 / Dynamic Range Meter 1.1.1
log date: 2014-12-24 15:28:35
--------------------------------------------------------------------------------
Analyzed: Michael Jackson / Dangerous
--------------------------------------------------------------------------------
DR         Peak         RMS     Duration Track
--------------------------------------------------------------------------------
DR10      -1.00 dB   -12.99 dB      5:40 ?-Jam
DR8       -1.00 dB   -11.30 dB      5:25 ?-Why You Wanna Trip on Me
DR8       -1.00 dB   -12.33 dB      6:32 ?-In the Closet
DR8       -1.00 dB   -10.44 dB      3:42 ?-She Drives Me Wild
DR8       -1.00 dB   -10.34 dB      4:00 ?-Remember the Time
DR8       -1.10 dB   -10.77 dB      5:02 ?-Can't Let Her Get Away
DR9       -1.00 dB   -13.14 dB      6:24 ?-Heal the World
DR8       -1.00 dB   -11.93 dB      4:16 ?-Black or White
DR9       -1.00 dB   -11.39 dB      6:35 ?-Who Is It
DR8       -1.00 dB   -10.81 dB      5:30 ?-Give in to Me
DR10      -1.00 dB   -15.61 dB      7:39 ?-Will You Be There
DR8       -1.00 dB   -11.90 dB      5:58 ?-Keep the Faith
DR12      -1.12 dB   -18.07 dB      3:22 ?-Gone Too Soon
DR7       -1.20 dB    -9.57 dB      6:59 ?-Dangerous
--------------------------------------------------------------------------------
Number of tracks:  14
Official DR value: DR9
Samplerate:        96000 Hz
Channels:          2
Bits per sample:   24
Bitrate:           3005 kbps
Codec:             FLAC
================================================================================
При скачивании, если необходимо, переименуйте папку, в которой будет находиться альбом
Большая просьба к скачавшим поддерживать раздачу! Помогайте другим, ведь вам тоже может понадобиться помощь!
Не забываем говорить "Спасибо"!
Комментарии приветствуются!
[/spoiler]
Правила, инструкции, FAQ!!!
Торрент  Добавлен [01 июл 2017, 08:41] Скачать торрент Магнет ссылка
Скачать торрент
[ Размер 17.6 КБ / Просмотров 95 ]

Статус
Проверен 
 
Размер  1.6 ГБ
Приватный: Нет (DHT включён)
.torrent скачан  12
 


     Отправить личное сообщение
   
Страница 1 из 1
Показать сообщения за:  Поле сортировки  
Начать новую тему Ответить на тему


Сейчас этот форум просматривают: нет зарегистрированных пользователей и гости: 0


Вы не можете начинать темы
Вы не можете отвечать на сообщения
Вы не можете редактировать свои сообщения
Вы не можете удалять свои сообщения
Вы не можете добавлять вложения

Перейти:  
cron