Начать новую тему Ответить на тему
Статистика раздачи
Размер: 250 МБ | Добавлен: 16 мар 2014, 00:01 | Скачали: 0
Сидеров: 1  [0 байт/сек]    Личеров: 0  [0 байт/сек]
Пред. тема | След. тема 

Автор
Сообщение

СообщениеДобавлено: 16 мар 2014, 00:01 

Ответить с цитатой 

McLuhan - Anomaly (1971) Released 2010

Жанр: Jazz Rock/Prog Rock
Год: 1971
Страна: US
Released: 2010/Spain
Label: Picar
Catalog#: 812011-2
Аудио кодек: FLAC
Тип рипа: tracks + .cue
Битрейт аудио: lossless
Продолжительность: 00:36:20
Источник: alex752
Scans: в раздаче
Треклист:
A1. The Monster Bride (10:36)
A2. Spiders (In Neals Basement) (5:58)
B1. Witches Theme And Dance (9:47)
B2. A Brief Message From Your Local Media (9:59)
B2.a The Garden
B2.b The Assembly Line
B2.c Electric Man
B2.d Question
#777
Группа одного альбома. Зато какого! Команда создана из сокурсников Иллинойского университета на обломках прежней группы Seven Seas по инициативе Дэвида Райта, игравшего на любых духовых инструментах, и ставшего вдохновителем данного проекта. Музыканты решили не зацикливаться на стилях и замешали все, что им было необходимо для выражения их концептуального замысла. Скорее всего это можно отнести к арт-брассу. Музыка более по духу английская, чем американская. Но то, что у них получилось - безусловно маленький шедевр эпохи прогрессивного рока.

Credits
- Bass Guitar, Vocals – Neal Rosner
- Design – N.B. Ward Assoc.
- Drums – John Mahoney (3) (tracks: A1, A2, B2.a to B2.d), Michael Linn (2) (tracks: B1)
- Flute, Clarinet, Tenor Saxophone – Paul Cohn
- Guest, Timpani, Xylophone, Chimes – Bobby Christian (tracks: A1, B2.a to B2.d)
- Guitar, Vocals – Dennis Stoney Phillips
- Illustration – Al D'Agostino
- Organ, Piano, Voice [Screaming] – Tom (Tojza) Laney
- Producer – Bruce Swedien
- Trumpet, Vocals, Liner Notes – David Wright (18)
- Vocals – John Mahoney (3)
- Written-By – David Wright (18) (tracks: A1, B1 to B2.d), Marvin Krout (tracks: A2)
Notes
digipack
Код:
Код:
EAC extraction logfile from 26. May 2010, 18:00 for CD
McLuhan / Anomaly

Used drive  : HP      DVD Writer 1135r   Adapter: 0  ID: 0
Read mode   : Secure with NO C2, accurate stream, disable cache
Read offset correction : 6
Overread into Lead-In and Lead-Out : No

Used output format : C:\Users\Pollux\Downloads\Syrup098b7\Syrup.exe   (User Defined Encoder)
                     320 kBit/s
                     Additional command line options : REACT %o %s %d "%a" "%g" "%t" "%n" "%x" "%y" "%m" "%e" "%f" "%b" %r

Other options      :
    Fill up missing offset samples with silence : Yes
    Delete leading and trailing silent blocks : No
    Native Win32 interface for Win NT & 2000

Track  1
     Filename D:\Pollux\McLuhan - Anomaly - 01 - The Monster Bride.wav

     Pre-gap length  0:00:02.00

     Peak level 97.7 %
     Track quality 100.0 %
     Test CRC 52F6189A
     Copy CRC 52F6189A
     Copy OK

Track  2
     Filename D:\Pollux\McLuhan - Anomaly - 02 - Spiders (In Neals Basement).wav

     Peak level 97.6 %
     Track quality 100.0 %
     Test CRC FC6C713C
     Copy CRC FC6C713C
     Copy OK

Track  3
     Filename D:\Pollux\McLuhan - Anomaly - 03 - Witches Theme And Dance.wav

     Peak level 97.7 %
     Track quality 100.0 %
     Test CRC 38747B2C
     Copy CRC 38747B2C
     Copy OK

Track  4
     Filename D:\Pollux\McLuhan - Anomaly - 04 - A Brief Message From Your Local Media.wav

     Peak level 97.7 %
     Track quality 100.0 %
     Test CRC CBABE664
     Copy CRC CBABE664
     Copy OK

No errors occured

End of status report
Код:
Код:
-----------------------

DON'T MODIFY THIS FILE

-----------------------

PERFORMER: auCDtect Task Manager, ver. 1.6.0 RC1 build 1.6.0.1
Copyright (c) 2008-2010 y-soft. All rights reserved
http:/y-soft.org

ANALYZER: auCDtect: CD records authenticity detector, version 0.8.2
Copyright (c) 2004 Oleg Berngardt. All rights reserved.
Copyright (c) 2004 Alexander Djourik. All rights reserved.

FILE: 04 - A Brief Message From Your Local Media.flac
  Size: 62622205 Hash: CD7A3E2E2DE44E70CACBAD399C9015F8 Accuracy: -m0
  Conclusion: CDDA 100%
  Signature: 34E70EC19C917582CE052C3BD0C97584AA16D64C
FILE: 03 - Witches Theme And Dance.flac
  Size: 69254330 Hash: 76F68A418EF73CC3353A7FEB7AC4FDFA Accuracy: -m0
  Conclusion: CDDA 100%
  Signature: 389CE46E7BBD47607F61E65A6D1260600CDCD179
FILE: 02 - Spiders (In Neals Basement).flac
  Size: 43770110 Hash: 02D6E657B6D3DD80DE437E24E586E1CF Accuracy: -m0
  Conclusion: CDDA 100%
  Signature: 8C4D71BF913EAAFAAE1121E7F268EEDFF004B76A
FILE: 01 - The Monster Bride.flac
  Size: 67734208 Hash: 62EAA4E997F1B5F23BC37A4846BBD3E2 Accuracy: -m0
  Conclusion: CDDA 100%
  Signature: F2ECE8EF968364B2EF83281E24C361925BAE8F6C
Код:
Код:
REM GENRE "Progressive Rock"
REM DATE 1970
REM DISCID 3A088304
REM COMMENT "ExactAudioCopy v0.95b4"
PERFORMER "McLuhan"
TITLE "Anomaly"
FILE "01 - The Monster Bride.flac" WAVE
  TRACK 01 AUDIO
    TITLE "The Monster Bride"
    PERFORMER "McLuhan"
    INDEX 01 00:00:00
FILE "02 - Spiders (In Neals Basement).flac" WAVE
  TRACK 02 AUDIO
    TITLE "Spiders (In Neals Basement)"
    PERFORMER "McLuhan"
    INDEX 01 00:00:00
FILE "03 - Witches Theme And Dance.flac" WAVE
  TRACK 03 AUDIO
    TITLE "Witches Theme And Dance"
    PERFORMER "McLuhan"
    INDEX 01 00:00:00
FILE "04 - A Brief Message From Your Local Media.flac" WAVE
  TRACK 04 AUDIO
    TITLE "A Brief Message From Your Local Media"
    PERFORMER "McLuhan"
    INDEX 01 00:00:00
Правила, инструкции, FAQ!!!
Торрент  Добавлен [16 мар 2014, 00:01] Скачать торрент Магнет ссылка
Скачать торрент
[ Размер 20.83 КБ / Просмотров 34 ]

Статус  
 
Размер  250 МБ
Приватный: Нет (DHT включён)
.torrent скачан  0
 


     Отправить личное сообщение
   
Страница 1 из 1
Показать сообщения за:  Поле сортировки  
Начать новую тему Ответить на тему


Сейчас этот форум просматривают: нет зарегистрированных пользователей и гости: 0


Вы не можете начинать темы
Вы не можете отвечать на сообщения
Вы не можете редактировать свои сообщения
Вы не можете удалять свои сообщения
Вы не можете добавлять вложения

Перейти:  
cron