Начать новую тему Ответить на тему
Статистика раздачи
Размер: 319.17 МБ | Добавлен: 16 мар 2014, 00:08 | Скачали: 0
Сидеров: 0  [0 байт/сек]    Личеров: 0  [0 байт/сек]
Пред. тема | След. тема 

Автор
Сообщение

СообщениеДобавлено: 16 мар 2014, 00:08 

Ответить с цитатой 

McDonald And Giles - McDonald And Giles (1970) Mini LP HD-CD /1998, Atlantic Japan/

Жанр: Psychedelic Rock/Prog Rock
Год: 1970
Страна: UK
Released: 1998/Japan
Label: Atlantic
Catalog#: AMCY-2729
Аудио кодек: FLAC
Тип рипа: image+.cue
Битрейт аудио: lossless
Продолжительность: 00:46:12
Источник-релизер: vicpalbk2006
Scans: в раздаче
Треклист:
01. Suite In C (11:25)
02. Flight Of The Ibis (3:21)
03. Is She Waiting ? (2:44)
04. Tomorrow's People - The Children Of Today (7:03)
05. Birdman (21:39)

Имена Иена МакДональда и Майкла Джайлза навеки занесены в семейную летопись King Crimson. И пускай участие этих джентльменов в прогрессивном мегапроекте ограничилось лишь дебютной пластинкой "In the Court of the Crimson King" (1969). Не стоит забывать, что превосходной мелодикой таких пьес, как "I Talk to the Wind" и "The Court of the Crimson King", мы обязаны непосредственно МакДональду. Разойдясь с Робертом Фриппом в видении дальнейших творческих перспектив, оба покинули группу в самый разгар американского турне. На дворе стоял декабрь 1969 года. Податься ребятам было некуда. Однако изнывать от тоски они также не собирались. Обсудив стратегию поведения, Иен и Майкл дерзнули претворить в жизнь совместную работу, максимально отражающую их текущие запросы. В помощники рекрутировали младшего из братьев Джайлз - Питера (бас) и авторитетного органиста Стива Уинвуда (Spencer Davis Group, Traffic, Blind Faith). За ударные отвечал, естественно, Майкл, а остальные инструменты (гитара, фортепиано, орган, саксофон, флейта, кларнет, цитра) взвалил на себя многостаночник Иен. Вокальные партии мастермайнды распределили, исходя из трезвой оценки собственных талантов. И понеслось...
В коммерческом отношении альбом не состоялся. Музыканты лишились поддержки лейбла Island и приняли решение расстаться. МакДональд обрел себя в рамках АОР-коллектива Foreigner, Джайлз начал карьеру сессионного артиста и кинокомпозитора. Что же касается тандем-релиза 1970-го года, то последний занял строго отведенное ему место в ряду образцовых достижений раннего английского арт-рока.

Credits
- Arranged By [Strings, Brass], Conductor – Mike Gray (tracks: 1, 5)
- Artwork By [Cover Painting] – Charlotte Bates
- Bass [Bass Guitar] – Peter Giles
- Drums, Percussion [Assorted], Vocals, Composed By, Arranged By – Michael Giles
- Engineer – Brian Humphries
- Engineer [Assistant] – Richard Digby Smith
- Guitar, Piano, Organ, Saxophone, Flute, Clarinet, Zither, Vocals, Composed By, Arranged By – Ian McDonald
- Organ – Steve Winwood
- Photography – Richard DiLello
- Piano [Solo] – Steve Winwood (tracks: 1)
- Producer – Ian McDonald, Michael Giles
- Trombone – Michael Blakesley (tracks: 4)
Код:
Код:
Exact Audio Copy V0.99 prebeta 4 from 23. January 2008

Отчёт EAC об извлечении, выполненном 25. августа 2012, 2:40

McDonald and Giles / McDonald and Giles

Дисковод: ASUS    DRW-1814BL   Adapter: 1  ID: 0

Режим чтения                 : Достоверность
Использование точного потока : Да
Отключение кэша аудио        : Да
Использование указателей C2  : Нет

Коррекция смещения при чтении                     : 6
Способность читать области Lead-in и Lead-out     : Нет
Заполнение пропущенных сэмплов тишиной            : Да
Удаление блоков с тишиной в начале и конце        : Нет
При вычислениях CRC использовались нулевые сэмплы : Да
Интерфейс                                         : Установленный внешний ASPI-интерфейс

Выходной формат          : Пользовательский кодировщик
Выбранный битрейт        : 1024 kBit/s
Качество                 : Высокий
Добавление ID3-тэга      : Нет
Утилита сжатия           : C:\Program Files\Exact Audio Copy\FLAC\FLAC.EXE
Дополнительные параметры : -6 -V -T "ARTIST=%a" -T "TITLE=%t" -T "ALBUM=%g" -T "DATE=%y" -T "TRACKNUMBER=%n" -T "GENRE=%m" -T "COMMENT=%e" %s -o %d

TOC извлечённого CD

     Трек |   Старт  | Длительность | Начальный сектор | Конечный сектор
    ---------------------------------------------------------------------
       1  |  0:00.00 |   11:24.72   |           0      |      51371
       2  | 11:24.72 |    3:20.50   |       51372      |      66421
       3  | 14:45.47 |    2:44.00   |       66422      |      78721
       4  | 17:29.47 |    7:02.55   |       78722      |     110426
       5  | 24:32.27 |   21:39.28   |      110427      |     207879

Характеристики диапазона извлечения и сообщения об ошибках

Выбранный диапазон

     Имя файла D:\loSSleSS\McDonald and Giles'70\McDonald and Giles - McDonald and Giles.wav

     Пиковый уровень 100.0 %
     Качество диапазона 99.9 %
     CRC теста B970D15D
     CRC копии B970D15D
     Копирование... OK

Ошибок не произошло

AccurateRip: сводка

Трек  1  точность не определена (достоверность 3)  [57F7834B], AccurateRip вернул [FA035428]
Трек  2  точность не определена (достоверность 3)  [C8AF15D7], AccurateRip вернул [A13FBB0D]
Трек  3  точность не определена (достоверность 3)  [47486B27], AccurateRip вернул [1F8B21F3]
Трек  4  точность не определена (достоверность 3)  [4103BBED], AccurateRip вернул [27069271]
Трек  5  точность не определена (достоверность 3)  [7F3D1A25], AccurateRip вернул [DD695331]

Ни один трек не прошёл проверки на точность
В вашей базе может быть иной вариант штамповки диска

Конец отчёта
Код:
Код:
-----------------------

DON'T MODIFY THIS FILE

-----------------------

PERFORMER: auCDtect Task Manager, ver. 1.6.0 RC1 build 1.6.0.1
Copyright (c) 2008-2010 y-soft. All rights reserved
http:/y-soft.org

ANALYZER: auCDtect: CD records authenticity detector, version 0.8.2
Copyright (c) 2004 Oleg Berngardt. All rights reserved.
Copyright (c) 2004 Alexander Djourik. All rights reserved.

FILE: McDonald and Giles - McDonald and Giles.flac
  Size: 310981338 Hash: 41FD76F385138779CBE222DE81BE3559 Accuracy: -m0
  Conclusion: CDDA 100%
  Signature: A9E28407AF3AC34D4FAEF73E784B910AE72F2BDC
Правила, инструкции, FAQ!!!
Торрент  Добавлен [16 мар 2014, 00:08] Скачать торрент Магнет ссылка
Скачать торрент
[ Размер 13.93 КБ / Просмотров 98 ]

Статус  
 
Размер  319.17 МБ
Приватный: Нет (DHT включён)
.torrent скачан  0
 


     Отправить личное сообщение
   
Страница 1 из 1
Показать сообщения за:  Поле сортировки  
Начать новую тему Ответить на тему


Сейчас этот форум просматривают: нет зарегистрированных пользователей и гости: 0


Вы не можете начинать темы
Вы не можете отвечать на сообщения
Вы не можете редактировать свои сообщения
Вы не можете удалять свои сообщения
Вы не можете добавлять вложения

Перейти:  
cron
cron