Начать новую тему Ответить на тему
Статистика раздачи
Размер: 929.66 МБ | Добавлен: 16 мар 2014, 00:04 | Скачали: 2
Сидеров: 2  [0 байт/сек]    Личеров: 1  [0 байт/сек]
Пред. тема | След. тема 

Автор
Сообщение

СообщениеДобавлено: 16 мар 2014, 00:04 

Ответить с цитатой 

Mark Knopfler - Greatest Hits (2CD) (2008)

Год: 2008
Жанр: Rock, Blues Rock
Продолжительность: 02:37:20

Кодек: APE
Битрейт: Lossless
Тип битрейта: CBR
Продолжительность: 01:19:41
Трек лист:

01. True Love Will Never Fade
02. What It Is
03. Darling Pretty
04. This Is Us
05. Boom, Like That
06. Why Aye Man
07. Golden Heart
08. Metroland
09. The Trawlersman's Song
10. Say Too Much
11. Let It All Go
12. Song For Sonny Liston
13. You Don't Know You're Born
14. Silvertown Blues
15. Nobody's Got The Gun
16. Going Home - Theme Of The Local Hero
Продолжительность: 01:17:39
Трек лист:

01. The Fizzy And The Still
02. Rudiger
03. 5.15 A.M.
04. Beachcombing
05. Sailing To Philadelphia
06. Hill Farmer's Blues
07. Imelda
08. He's The Man - A Shot At Glory
09. Poor Boy Blues
10. Heart Full Of Holes
11. Hard Cases
12. The Last Laugh
13. Everybody Pays
14. The Ragpicker's Dream
15. Wag The Dog - Wag The Dog
16. Are We In Trouble Now
Код:
Код:
Exact Audio Copy V0.99 prebeta 4 from 23. January 2008

Отчёт EAC об извлечении, выполненном 8. сентября 2009, 18:15

Mark Knopfler / Greatest Hits vol 1

Дисковод: PIONEER DVD-RW  DVR-212D   Adapter: 3  ID: 0

Режим чтения                 : Достоверность
Использование точного потока : Да
Отключение кэша аудио        : Да
Использование указателей C2  : Нет

Коррекция смещения при чтении                     : 48
Способность читать области Lead-in и Lead-out     : Нет
Заполнение пропущенных сэмплов тишиной            : Да
Удаление блоков с тишиной в начале и конце        : Нет
При вычислениях CRC использовались нулевые сэмплы : Да
Интерфейс                                         : Встроенный Win32-интерфейс для Win NT/2000

Выходной формат          : Пользовательский кодировщик
Выбранный битрейт        : 1024 kBit/s
Качество                 : Высокий
Добавление ID3-тэга      : Нет
Утилита сжатия           : C:\Program Files\Exact Audio Copy\FLAC\FLAC.EXE
Дополнительные параметры : -6 -V -T "ARTIST=%a" -T "TITLE=%t" -T "ALBUM=%g" -T "DATE=%y" -T "TRACKNUMBER=%n" -T "GENRE=%m" -T "COMMENT=%e" %s -o %d

TOC извлечённого CD

     Трек |   Старт  | Длительность | Начальный сектор | Конечный сектор
    ---------------------------------------------------------------------
       1  |  0:00.00 |    4:21.66   |           0      |      19640
       2  |  4:21.66 |    4:57.50   |       19641      |      41965
       3  |  9:19.41 |    4:31.10   |       41966      |      62300
       4  | 13:50.51 |    4:39.08   |       62301      |      83233
       5  | 18:29.59 |    5:49.08   |       83234      |     109416
       6  | 24:18.67 |    6:14.29   |      109417      |     137495
       7  | 30:33.21 |    5:01.07   |      137496      |     160077
       8  | 35:34.28 |    4:42.30   |      160078      |     181257
       9  | 40:16.58 |    5:02.28   |      181258      |     203935
      10  | 45:19.11 |    2:39.17   |      203936      |     215877
      11  | 47:58.28 |    5:18.35   |      215878      |     239762
      12  | 53:16.63 |    5:06.55   |      239763      |     262767
      13  | 58:23.43 |    5:20.73   |      262768      |     286840
      14  | 63:44.41 |    5:32.12   |      286841      |     311752
      15  | 69:16.53 |    5:25.58   |      311753      |     336185
      16  | 74:42.36 |    4:59.00   |      336186      |     358610

Характеристики диапазона извлечения и сообщения об ошибках

Выбранный диапазон

     Имя файла C:\6\Mark Knopfler - Greatest Hits vol 1.wav

     Копирование прервано

Конец отчёта

------------------------------------------------------------

Exact Audio Copy V0.99 prebeta 4 from 23. January 2008

Отчёт EAC об извлечении, выполненном 8. сентября 2009, 21:16

Mark Knopfler / Greatest Hits vol 1

Дисковод: PIONEER DVD-RW  DVR-212D   Adapter: 3  ID: 0

Режим чтения                 : Достоверность
Использование точного потока : Да
Отключение кэша аудио        : Да
Использование указателей C2  : Нет

Коррекция смещения при чтении                     : 48
Способность читать области Lead-in и Lead-out     : Нет
Заполнение пропущенных сэмплов тишиной            : Да
Удаление блоков с тишиной в начале и конце        : Нет
При вычислениях CRC использовались нулевые сэмплы : Да
Интерфейс                                         : Встроенный Win32-интерфейс для Win NT/2000

Выходной формат          : Пользовательский кодировщик
Выбранный битрейт        : 1024 kBit/s
Качество                 : Высокий
Добавление ID3-тэга      : Нет
Утилита сжатия           : C:\Program Files\Exact Audio Copy\FLAC\FLAC.EXE
Дополнительные параметры : -6 -V -T "ARTIST=%a" -T "TITLE=%t" -T "ALBUM=%g" -T "DATE=%y" -T "TRACKNUMBER=%n" -T "GENRE=%m" -T "COMMENT=%e" %s -o %d

TOC извлечённого CD

     Трек |   Старт  | Длительность | Начальный сектор | Конечный сектор
    ---------------------------------------------------------------------
       1  |  0:00.00 |    4:21.66   |           0      |      19640
       2  |  4:21.66 |    4:57.50   |       19641      |      41965
       3  |  9:19.41 |    4:31.10   |       41966      |      62300
       4  | 13:50.51 |    4:39.08   |       62301      |      83233
       5  | 18:29.59 |    5:49.08   |       83234      |     109416
       6  | 24:18.67 |    6:14.29   |      109417      |     137495
       7  | 30:33.21 |    5:01.07   |      137496      |     160077
       8  | 35:34.28 |    4:42.30   |      160078      |     181257
       9  | 40:16.58 |    5:02.28   |      181258      |     203935
      10  | 45:19.11 |    2:39.17   |      203936      |     215877
      11  | 47:58.28 |    5:18.35   |      215878      |     239762
      12  | 53:16.63 |    5:06.55   |      239763      |     262767
      13  | 58:23.43 |    5:20.73   |      262768      |     286840
      14  | 63:44.41 |    5:32.12   |      286841      |     311752
      15  | 69:16.53 |    5:25.58   |      311753      |     336185
      16  | 74:42.36 |    4:59.00   |      336186      |     358610

Характеристики диапазона извлечения и сообщения об ошибках

Выбранный диапазон

     Имя файла C:\6\Mark Knopfler - Greatest Hits vol 1.wav

     Пиковый уровень 100.0 %
     Качество диапазона 100.0 %
     CRC копии 57C98972
     Копирование... OK

Ошибок не произошло

AccurateRip: сводка

Трек  1  нет в базе данных
Трек  2  нет в базе данных
Трек  3  нет в базе данных
Трек  4  нет в базе данных
Трек  5  нет в базе данных
Трек  6  нет в базе данных
Трек  7  нет в базе данных
Трек  8  нет в базе данных
Трек  9  нет в базе данных
Трек 10  нет в базе данных
Трек 11  нет в базе данных
Трек 12  нет в базе данных
Трек 13  нет в базе данных
Трек 14  нет в базе данных
Трек 15  нет в базе данных
Трек 16  нет в базе данных

Ни одного трека нет в базе AccurateRip

Конец отчёта
Код:
Код:
Exact Audio Copy V0.99 prebeta 4 from 23. January 2008

Отчёт EAC об извлечении, выполненном 8. сентября 2009, 21:38

Mark Knopfler / Greatest Hits vol 2

Дисковод: PIONEER DVD-RW  DVR-212D   Adapter: 3  ID: 0

Режим чтения                 : Достоверность
Использование точного потока : Да
Отключение кэша аудио        : Да
Использование указателей C2  : Нет

Коррекция смещения при чтении                     : 48
Способность читать области Lead-in и Lead-out     : Нет
Заполнение пропущенных сэмплов тишиной            : Да
Удаление блоков с тишиной в начале и конце        : Нет
При вычислениях CRC использовались нулевые сэмплы : Да
Интерфейс                                         : Встроенный Win32-интерфейс для Win NT/2000

Выходной формат          : Пользовательский кодировщик
Выбранный битрейт        : 1024 kBit/s
Качество                 : Высокий
Добавление ID3-тэга      : Нет
Утилита сжатия           : C:\Program Files\Exact Audio Copy\FLAC\FLAC.EXE
Дополнительные параметры : -6 -V -T "ARTIST=%a" -T "TITLE=%t" -T "ALBUM=%g" -T "DATE=%y" -T "TRACKNUMBER=%n" -T "GENRE=%m" -T "COMMENT=%e" %s -o %d

TOC извлечённого CD

     Трек |   Старт  | Длительность | Начальный сектор | Конечный сектор
    ---------------------------------------------------------------------
       1  |  0:00.00 |    4:07.67   |           0      |      18591
       2  |  4:07.67 |    6:03.30   |       18592      |      45846
       3  | 10:11.22 |    5:54.52   |       45847      |      72448
       4  | 16:05.74 |    4:14.16   |       72449      |      91514
       5  | 20:20.15 |    5:29.55   |       91515      |     116244
       6  | 25:49.70 |    3:45.32   |      116245      |     133151
       7  | 29:35.27 |    5:26.13   |      133152      |     157614
       8  | 35:01.40 |    4:42.73   |      157615      |     178837
       9  | 39:44.38 |    4:03.27   |      178838      |     197089
      10  | 43:47.65 |    6:36.16   |      197090      |     226805
      11  | 50:24.06 |    3:27.24   |      226806      |     242354
      12  | 53:51.30 |    3:22.43   |      242355      |     257547
      13  | 57:13.73 |    5:24.33   |      257548      |     281880
      14  | 62:38.31 |    4:20.51   |      281881      |     301431
      15  | 66:59.07 |    4:45.22   |      301432      |     322828
      16  | 71:44.29 |    5:54.60   |      322829      |     349438

Характеристики диапазона извлечения и сообщения об ошибках

Выбранный диапазон

     Имя файла C:\6\Mark Knopfler - Greatest Hits vol 2.wav

     Пиковый уровень 100.0 %
     Качество диапазона 99.9 %
     CRC копии 1591486E
     Копирование... OK

Ошибок не произошло

AccurateRip: сводка

Трек  1  нет в базе данных
Трек  2  нет в базе данных
Трек  3  нет в базе данных
Трек  4  нет в базе данных
Трек  5  нет в базе данных
Трек  6  нет в базе данных
Трек  7  нет в базе данных
Трек  8  нет в базе данных
Трек  9  нет в базе данных
Трек 10  нет в базе данных
Трек 11  нет в базе данных
Трек 12  нет в базе данных
Трек 13  нет в базе данных
Трек 14  нет в базе данных
Трек 15  нет в базе данных
Трек 16  нет в базе данных

Ни одного трека нет в базе AccurateRip

Конец отчёта
Код:
Код:
AUDIOCHECKER v2.0 beta (build 457) - by Dester -
~~~~~~~~~~~~~~~~~~~~~~~~~~~~~~~~~~
-=== НЕ РЕДАКТИРУЙТЕ ЭТОТ ФАЙЛ! ===-

Путь: ...\CD1

1 -=- Greatest Hits vol 1.ape -=- CDDA (100%)
Код:
Код:
AUDIOCHECKER v2.0 beta (build 457) - by Dester -
~~~~~~~~~~~~~~~~~~~~~~~~~~~~~~~~~~
-=== НЕ РЕДАКТИРУЙТЕ ЭТОТ ФАЙЛ! ===-

Путь: ...\CD2

1 -=- Greatest Hits vol 2.ape -=- CDDA (100%)
Правила, инструкции, FAQ!!!
Торрент  Добавлен [16 мар 2014, 00:04] Скачать торрент Магнет ссылка
Скачать торрент
[ Размер 19.51 КБ / Просмотров 42 ]

Статус  
 
Размер  929.66 МБ
Приватный: Нет (DHT включён)
.torrent скачан  2
 


     Отправить личное сообщение
   
Страница 1 из 1
Показать сообщения за:  Поле сортировки  
Начать новую тему Ответить на тему


Сейчас этот форум просматривают: нет зарегистрированных пользователей и гости: 0


Вы не можете начинать темы
Вы не можете отвечать на сообщения
Вы не можете редактировать свои сообщения
Вы не можете удалять свои сообщения
Вы не можете добавлять вложения

Перейти:  
cron