Начать новую тему Ответить на тему
Статистика раздачи
Размер: 744.31 МБ | Добавлен: 01 апр 2019, 19:03 | Скачали: 0
Сидеров: 2  [0 байт/сек]    Личеров: 1  [0 байт/сек]
Пред. тема | След. тема 

Автор
Сообщение

СообщениеДобавлено: 01 апр 2019, 19:03 

Ответить с цитатой 

Mariscal / Plus le temps
Формат записи/Источник записи: [TR24][OF]
Наличие водяных знаков: Нет
Год издания/переиздания диска: 2018
Жанр: Chanson, Pop
Издатель (лейбл): La Familia
Продолжительность: 00:38:44
Наличие сканов в содержимом раздачи: Front
Источник (релизер): 7digital
Контейнер: FLAC (*.flac)
Тип рипа: tracks
Разрядность: 24/88,2
Формат: PCM
Количество каналов: 2.0
Треклист:
01. À l'arrière des voitures
02. Fil du rasoir
03. All the World Flees
04. Le coton à même la peau
05. Je marche je respire
06. La rouille
07. Fier de sa solitude
08. Buvons
09. La rue des Corps Saints
10. Cimetière de l'amour
11. Plus le temps
Код:
foobar2000 1.1.10 / Dynamic Range Meter 1.1.1
log date: 2018-03-03 17:41:11
--------------------------------------------------------------------------------
Analyzed: Mariscal / Plus le temps
--------------------------------------------------------------------------------
DR         Peak         RMS     Duration Track
--------------------------------------------------------------------------------
DR11      -0.60 dB   -14.21 dB      4:28 ?-À l'arrière des voitures
DR6       -0.60 dB    -9.52 dB      2:49 ?-Fil du rasoir
DR9       -0.60 dB   -13.36 dB      4:15 ?-All the World Flees
DR9       -0.58 dB   -11.78 dB      2:42 ?-Le coton à même la peau
DR7       -0.59 dB   -10.95 dB      5:21 ?-Je marche je respire
DR5       -0.57 dB    -7.93 dB      3:13 ?-La rouille
DR8       -0.60 dB   -11.13 dB      3:12 ?-Fier de sa solitude
DR7       -0.60 dB   -10.42 dB      3:39 ?-Buvons
DR10      -0.60 dB   -13.19 dB      2:58 ?-La rue des Corps Saints
DR9       -0.60 dB   -11.90 dB      2:31 ?-Cimetière de l'amour
DR8       -0.60 dB   -12.31 dB      3:36 ?-Plus le temps
--------------------------------------------------------------------------------
Number of tracks:  11
Official DR value: DR8
Samplerate:        88200 Hz
Channels:          2
Bits per sample:   24
Bitrate:           2609 kbps
Codec:             FLAC
================================================================================
Mariscal sortira un premier album Plus le temps le 2 mars 2018, titre d'une chanson qui fait particulièrement sens quand on pense à son parcours atypique où les années passant, la maturité s'est posée sur ses épaules, affinant ses envies et son dessein artistique. Un album qu'il aura mis 8 ans à imaginer, rêver, explorer pour ne rien laisser au hasard... Si l'on doit citer des influences musicales, ce sont celles de Sufjan Stevens pour sa douceur et sa poésie musicale, Louis-Jean Cormier pour le traitement singulier des voix et de la polyphonie, Win Butler d'Arcade Fire pour le travail du rythme, l'album Pet Sounds et le titre God only knows des Beach Boys pour son arrangement flamboyant et précis. Un son pop où la voix puissante et claire de Mariscal tranche et nous guide entre la multitude des ch urs, les rythmes soutenus ou lents de l'instrumentation (essentiellement claviers, batterie et cordes).- On y découvre une écriture originale qui puise son inspiration dans les sensations et les émotions. Elles sont fortes, poignantes, liées à un instant. Mariscal dit se souvenir intensément d'un moment particulier, saisissant, qu'il étire le temps d'une chanson. - - Mariscal peut aujourd'hui être fier. Fier de son chemin parcouru, Fier de sa solitude comme il la chante et qui l'a construit, fier d'avoir pris le temps, d'avoir regardé avec courage le temps qui passe et qu'il a réussi à dompter.

Раздаю до первых 5-ти скачавших, на раздачи не возвращаюсь...

Правила, инструкции, FAQ!!!
Торрент  Добавлен [01 апр 2019, 19:03] Скачать торрент Магнет ссылка
Скачать торрент
[ Размер 15.69 КБ / Просмотров 8 ]

Статус
Проверен 
 
Размер  744.31 МБ
Приватный: Нет (DHT включён)
.torrent скачан  0
 


     Отправить личное сообщение
   
Страница 1 из 1
Показать сообщения за:  Поле сортировки  
Начать новую тему Ответить на тему


Сейчас этот форум просматривают: нет зарегистрированных пользователей и гости: 0


Вы не можете начинать темы
Вы не можете отвечать на сообщения
Вы не можете редактировать свои сообщения
Вы не можете удалять свои сообщения
Вы не можете добавлять вложения

Перейти:  
cron