Начать новую тему Ответить на тему
Статистика раздачи
Размер: 363.2 МБ | Добавлен: 01 апр 2019, 18:59 | Скачали: 0
Сидеров: 5  [0 байт/сек]    Личеров: 2  [0 байт/сек]
Пред. тема | След. тема 

Автор
Сообщение

СообщениеДобавлено: 01 апр 2019, 18:59 

Ответить с цитатой 

Marian Hill - Unusual
Формат записи/Источник записи: [TR24][OF]
Наличие водяных знаков: Нет
Год издания/переиздания диска: 2018
Жанр: Pop, Electronic
Издатель (лейбл): Republic Records/Photo Finish
Продолжительность: 36:50
Наличие сканов в содержимом раздачи: Только обложка альбома
Треклист:
01. Subtle Thing (3:01)
02. Differently (3:40)
03. All Night Long (3:17)
04. Don't Miss You (3:27)
05. Wish You Would (3:22)
06. Don't Do It (3:12)
07. Sideways (3:53)
08. No Hesitation (3:37)
09. Listening (4:08)
10. Go Quietly (5:13)
 
Marian Hill’s sophomore album ‘Unusual’ evolves the sonic and soulful adventure Samantha Gongol and Jeremy Lloyd began on their debut album ‘Act One’ & breakthrough platinum single ‘Down,’ which reached Top 10 on Top 40 radio and Top 25 on the Billboard Hot 100 charts. The duo is already confirmed for highly coveted performances at the Coachella and Firefly Music Festivals & a spring headline tour, which launches in April!

Контейнер: FLAC (*.flac)
Тип рипа: tracks
Разрядность: 24/44,1
Формат: PCM
Количество каналов: 2.0
Код:
foobar2000 1.3.9 / Dynamic Range Meter 1.1.1
log date: 2018-05-11 23:18:38
--------------------------------------------------------------------------------
Analyzed: Marian Hill / Unusual
--------------------------------------------------------------------------------
DR         Peak         RMS     Duration Track
--------------------------------------------------------------------------------
DR5       -0.20 dB    -7.49 dB      3:01 01-Subtle Thing
DR4       -0.20 dB    -8.25 dB      3:40 02-Differently
DR6       -0.20 dB    -7.59 dB      3:17 03-All Night Long
DR7       -0.20 dB    -8.62 dB      3:27 04-Don't Miss You
DR5       -0.20 dB    -8.23 dB      3:22 05-Wish You Would
DR6       -0.20 dB    -8.78 dB      3:12 06-Don't Do It
DR7       -0.20 dB   -11.70 dB      3:53 07-Sideways
DR7       -0.20 dB    -9.40 dB      3:37 08-No Hesitation
DR8       -0.20 dB   -10.05 dB      4:08 09-Listening
DR8       -0.20 dB   -11.56 dB      5:13 10-Go Quietly
--------------------------------------------------------------------------------
Number of tracks:  10
Official DR value: DR6
Samplerate:        44100 Hz
Channels:          2
Bits per sample:   24
Bitrate:           1243 kbps
Codec:             FLAC
================================================================================
Источник: qobuz.com[/spoiler]
Правила, инструкции, FAQ!!!
Торрент  Добавлен [01 апр 2019, 18:59] Скачать торрент Магнет ссылка
Скачать торрент
[ Размер 15.25 КБ / Просмотров 20 ]

Статус
Проверен 
 
Размер  363.2 МБ
Приватный: Нет (DHT включён)
.torrent скачан  0
 


     Отправить личное сообщение
   
Страница 1 из 1
Показать сообщения за:  Поле сортировки  
Начать новую тему Ответить на тему


Сейчас этот форум просматривают: нет зарегистрированных пользователей и гости: 0


Вы не можете начинать темы
Вы не можете отвечать на сообщения
Вы не можете редактировать свои сообщения
Вы не можете удалять свои сообщения
Вы не можете добавлять вложения

Перейти:  
cron
cron