Начать новую тему Ответить на тему
Статистика раздачи
Размер: 900.2 МБ | Добавлен: 01 июл 2017, 08:24 | Скачали: 2
Сидеров: 9  [0 байт/сек]    Личеров: 2  [0 байт/сек]
Пред. тема | След. тема 

Автор
Сообщение

СообщениеДобавлено: 01 июл 2017, 08:24 

Ответить с цитатой 

Mariah Carey
Music Box

Год издания/переиздания диска: 1993/2015
Жанр: Pop, R&B
Издатель: Columbia Records
Продолжительность: 00:41:44
Наличие сканов: Sleeve


01. Dreamlover (3:53)
02. Hero (4:18)
03. Anytime You Need a Friend (4:25)
04. Music Box (4:56)
05. Now That I Know (4:18)
06. Never Forget You (3:45)
07. Without You (3:35)
08. Just To Hold You Once Again (3:57)
09. I've Been Thinking About You (4:46)
10. All I've Ever Wanted (3:51)


Контейнер: FLAC (*.flac)
Тип рипа: tracks
Разрядность: 24bit / 96kHz
Количество каналов: 2.0

Linda Ronstadt was America's sweetheart of the '70s, because she was able to combine a pretty face, a pretty voice and a safe personality. Her songs might be full of big notes and high emotions, but they satisfied every predictable expectation of a love ballad or good-time rocker. Mariah Carey is America's sweetheart of the '90s for the exact same reasons. Music Box topped the Billboard album charts, yielding number-one singles like "Dreamlover" and "Hero." The titles, one a hollow Minnie Riperton knock-off and the other a stiff Barbra Streisand imitation, are tip-offs to Carey's reliance on untethered fantasy (she's the fantasizer in the lyrics and the fantasy object in the videos). These songs, co-written and co-produced like most of the album by Walter Anasieff and Carey herself, are constructed to show off her dizzying soprano, not to provide an original approach to a well-worn subject. Even when she gets a strong ballad to sing, like her current singles--Babyface's "Never Forget You" or Badfinger/Nilsson's "Without You"--she overdoes the self-pity bit so much that the song loses its dramatic tension.
Mariah Carey has been stung by critical charges that she's all vocal bombast and no subtlety, soul, or shading. Her solution was to make an album in which her celebrated octave-leaping voice would be downplayed and she could demonstrate her ability to sing softly and coolly. Well, she was partly successful; she trimmed the volume on Music Box. Unfortunately, she also cut the energy level; Carey sounds detached on several selections. She scored a couple of huge hits, "Hero" and "Dreamlover," where she did inject some personality and intensity into the leads. Most other times, Carey blended into the background and let the tracks guide her, instead of pushing and exploding through them. It was wise for Carey to display other elements of her approach, but sometimes excessive spirit is preferable to an absence of passion. --AllMusic Review by Ron Wynn
Personnel:
Mariah Carey – lead vocals, background vocals
Walter Afanasieff – keyboards, additional keyboards, synthesizers
Dave Hall – synthesizers, keyboards, rhythm programming
David Cole – keyboards
Babyface – keyboards, percussion, background vocals
Ren Klyce – Akai and Roland programming
Gary Cirimelli – MacIntosh and synthesizer programming
Ricky Crespo – programming
Shawn Lucas – programming
James T. Alfano – programming
Michael Landau – guitars
Kayo – bass
Robert Clivillés – drums, percussion
Mark C. Rooney – background vocals
Cindy Mizelle – background vocals
Melonie Daniels – background vocals
Kelly Price – background vocals
Shanrae Price – background vocals
Код:
foobar2000 1.3.8 / Dynamic Range Meter 1.1.1
log date: 2015-07-09 16:11:01
--------------------------------------------------------------------------------
Analyzed: Mariah Carey / Music Box
--------------------------------------------------------------------------------
DR         Peak         RMS     Duration Track
--------------------------------------------------------------------------------
DR13      -0.55 dB   -15.12 dB      3:53 01-Dreamlover
DR11      -0.55 dB   -15.60 dB      4:18 02-Hero
DR11      -0.55 dB   -14.57 dB      4:25 03-Anytime You Need a Friend
DR11      -1.13 dB   -16.25 dB      4:56 04-Music Box
DR10      -1.86 dB   -14.52 dB      4:18 05-Now That I Know
DR12      -0.55 dB   -14.72 dB      3:45 06-Never Forget You
DR9       -1.84 dB   -13.93 dB      3:35 07-Without You
DR12      -0.55 dB   -15.88 dB      3:57 08-Just To Hold You Once Again
DR12      -0.84 dB   -14.87 dB      4:46 09-I've Been Thinking About You
DR11      -0.55 dB   -15.09 dB      3:51 10-All I've Ever Wanted
--------------------------------------------------------------------------------
Number of tracks:  10
Official DR value: DR11
Samplerate:        96000 Hz
Channels:          2
Bits per sample:   24
Bitrate:           3050 kbps
Codec:             FLAC
================================================================================
При скачивании, если необходимо, переименуйте папку, в которой будет находиться альбом
Большая просьба к скачавшим поддерживать раздачу! Помогайте другим, ведь вам тоже может понадобиться помощь!
Не забываем говорить "Спасибо"!
Комментарии приветствуются!
[/spoiler]
Правила, инструкции, FAQ!!!
Торрент  Добавлен [01 июл 2017, 08:24] Скачать торрент Магнет ссылка
Скачать торрент
[ Размер 18.73 КБ / Просмотров 134 ]

Статус
Проверен 
 
Размер  900.2 МБ
Приватный: Нет (DHT включён)
.torrent скачан  2
 


     Отправить личное сообщение
   
Страница 1 из 1
Показать сообщения за:  Поле сортировки  
Начать новую тему Ответить на тему


Сейчас этот форум просматривают: нет зарегистрированных пользователей и гости: 0


Вы не можете начинать темы
Вы не можете отвечать на сообщения
Вы не можете редактировать свои сообщения
Вы не можете удалять свои сообщения
Вы не можете добавлять вложения

Перейти:  
cron